Crazy World Only 4 You

Sorry For The Inconvenience. If You are facing link dead or no google drive file access then inform us via comment

Latest Updates

Friday, 20 April 2018

Kill the Messenger (2014) BluRay 720p x264 M.Audios [Telugu + Tamil + Hindi + Eng] - 1GB - ESub


Poster


iMDB
Imdb Picture Title: Kill the Messenger
Year: 2014
Runtime: 112 minutes
Votes: 38075
Rating: 7.0/10
Language: English
Country: USA
All Genres: Biography, Crime, Drama, Mystery, Thriller
Plot Outline: Based on the true story of journalist Gary Webb. The film takes place in the mid-1990s, when Webb uncovered the CIA's past role in importing huge amounts of cocaine into the U.S. that was ...
Tagline: Based on the remarkable true story of Pulitzer Prize-winning journalist Gary Webb
Director: Michael Cuesta
Writing By: Peter Landesman,Gary Webb,Nick Schou,
Produced By: Pamela Abdy,Michael Bederman,Naomi Despres,Don Handfield,Peter Landesman,Jeremy Renner,Scott Stuber,
Music: Nathan Johnson
Cast:
Jeremy Renner as Gary Webb
Robert Patrick as Ronald J. Quail
Jena Sims as Quail's Girlfriend
Robert Pralgo as L.A. Sheriff
Hajji Golightly as DEA Agent
Ted Huckabee as Bob
Mary Elizabeth Winstead as Anna Simons
Lucas Hedges as Ian Webb
Rosemarie DeWitt as Sue Webb
Matt Lintz as Eric Webb
Trailers:
Trailer #1



Details
Name:Kill the Messenger (2014) BluRay - 720p - [Hindi + Tamil + Telugu + Eng] ESubs[MovCR]
Description:
 Kill the Messenger (2014) BluRay 720p - x264 - Original Audios [Telugu + Tamil + Hindi + Eng] - 1GB - ESub

 


Format                                   : Matroska
Format version                           : Version 4 / Version 2
File size                                : 1.02 GiB
Duration                                 : 1 h 51 min
Overall bit rate mode                    : Variable
Overall bit rate                         : 1 310 kb/s

 

Video
ID                                       : 1
Format                                   : AVC
Format/Info                              : Advanced Video Codec
Format profile                           : High@L4.1
Format settings                          : CABAC / 4 Ref Frames
Format settings, CABAC                   : Yes
Format settings, RefFrames               : 4 frames
Codec ID                                 : V_MPEG4/ISO/AVC
Duration                                 : 1 h 51 min
Bit rate                                 : 923 kb/s
Width                                    : 1 280 pixels
Height                                   : 536 pixels
Display aspect ratio                     : 2.40:1
Frame rate mode                          : Constant
Frame rate                               : 24.000 FPS
Color space                              : YUV
Chroma subsampling                       : 4:2:0
Bit depth                                : 8 bits
Scan type                                : Progressive
Bits/(Pixel*Frame)                       : 0.056
Stream size                              : 739 MiB (70%)
Writing library                          : x264 core 142 r2479 dd79a61
Language                                 : English
Default                                  : Yes
Forced                                   : No
Color range                              : Limited
Color primaries                          : BT.709
Matrix coefficients                      : BT.709

 

Audio #1
ID                                       : 2
Format                                   : MPEG Audio
Format version                           : Version 1
Format profile                           : Layer 3
Format settings                          : Joint stereo / MS Stereo
Codec ID                                 : A_MPEG/L3
Codec ID/Hint                            : MP3
Duration                                 : 1 h 51 min
Bit rate mode                            : Variable
Bit rate                                 : 96.0 kb/s
Channel(s)                               : 2 channels
Sampling rate                            : 44.1 kHz
Frame rate                               : 38.281 FPS (1152 SPF)
Compression mode                         : Lossy
Stream size                              : 77.2 MiB (7%)
Writing library                          : LAME3.99r
Encoding settings                        : -m j -V 4 -q 3 -lowpass 15.1 --abr 96
Language                                 : Telugu
Default                                  : No
Forced                                   : No

 

Audio #2
ID                                       : 3
Format                                   : MPEG Audio
Format version                           : Version 1
Format profile                           : Layer 3
Format settings                          : Joint stereo / MS Stereo
Codec ID                                 : A_MPEG/L3
Codec ID/Hint                            : MP3
Duration                                 : 1 h 51 min
Bit rate mode                            : Variable
Bit rate                                 : 96.0 kb/s
Channel(s)                               : 2 channels
Sampling rate                            : 44.1 kHz
Frame rate                               : 38.281 FPS (1152 SPF)
Compression mode                         : Lossy
Stream size                              : 76.9 MiB (7%)
Writing library                          : LAME3.99r
Encoding settings                        : -m j -V 4 -q 3 -lowpass 15.1 --abr 96
Language                                 : Tamil
Default                                  : No
Forced                                   : No

 

Audio #3
ID                                       : 4
Format                                   : MPEG Audio
Format version                           : Version 1
Format profile                           : Layer 3
Format settings                          : Joint stereo / MS Stereo
Codec ID                                 : A_MPEG/L3
Codec ID/Hint                            : MP3
Duration                                 : 1 h 51 min
Bit rate mode                            : Variable
Bit rate                                 : 96.0 kb/s
Channel(s)                               : 2 channels
Sampling rate                            : 48.0 kHz
Frame rate                               : 41.667 FPS (1152 SPF)
Compression mode                         : Lossy
Stream size                              : 77.8 MiB (7%)
Writing library                          : LAME3.99r
Encoding settings                        : -m j -V 4 -q 3 -lowpass 15.1 --abr 96
Language                                 : Hindi
Default                                  : Yes
Forced                                   : Yes

Audio #4
ID                                       : 5
Format                                   : AAC
Format/Info                              : Advanced Audio Codec
Format profile                           : LC
Codec ID                                 : A_AAC-2
Duration                                 : 1 h 51 min
Bit rate                                 : 93.7 kb/s
Channel(s)                               : 2 channels
Channel positions                        : Front: L R
Sampling rate                            : 48.0 kHz
Frame rate                               : 46.875 FPS (1024 SPF)
Compression mode                         : Lossy
Stream size                              : 75.0 MiB (7%)
Language                                 : English
Default                                  : No
Forced                                   : No

Text
ID                                       : 6
Format                                   : UTF-8
Codec ID                                 : S_TEXT/UTF8
Codec ID/Info                            : UTF-8 Plain Text
Duration                                 : 1 h 43 min
Bit rate                                 : 66 b/s
Count of elements                        : 1471
Stream size                              : 50.8 KiB (0%)
Language                                 : English
Default                                  : Yes
Forced                                   : No



43743fc91e46e325c7e40269a1d0fb26.md.pngad013bfc2f3f6fb9152b81496089cd3f.md.png
70e4000e92d80f4274e1cd1fc8aece8d.md.png8b29c75f644f75a23777816f07ec8476.md.png
e3d5a19f4da934e1cb3ad20072423a19.md.png4127a87d79d542c5c5f5b2507eb33fbc.md.png
Category:Movies > Hollywood Dub
Lang:Hindi
Total Size:1.02 GB



:download:

|| Download This Movie Via Single Resumable Links Size: 1.02 GB ||

Direct-1 Google Drive | Direct-2 | Direct-3 |

Watch Online Click Here

No comments:

Post a Comment