Crazy World Only 4 You

Sorry For The Inconvenience. If You are facing link dead or no google drive file access then inform us via comment

Latest Updates

Friday, 13 April 2018

Lions For Lams (2007) BluRay 1080p Dual Audio [Hindi DD 5.1Ch @448 kbps -English 5.1Ch @224 kbps] [Dzrg Torrents®]


Poster
Lions-for-_Lambs-_Poster-01-_By--_Sworld4ufree.Blogspot.Com



iMDB
Imdb Picture Title: Lions for Lambs
Year: 2007
Runtime: 92 minutes
Votes: 42852
Rating: 6.2/10
Language: English
Country: USA
All Genres: Drama, Thriller, War
Plot Outline: Injuries sustained by two Army rangers behind enemy lines in Afghanistan set off a sequence of events involving a congressman, a journalist and a professor.
Tagline: If you don't STAND for something, you might FALL for anything
Director: Robert Redford
Writing By: Matthew Michael Carnahan,
Produced By: Matthew Michael Carnahan,Tracy Falco,Andrew Hauptman,Bill Holderman,Daniel Lupi,Robert Redford,
Music: Mark Isham
Cast:
Robert Redford as Professor Stephen Malley
Meryl Streep as Janine Roth
Tom Cruise as Senator Jasper Irving
Michael Peña as Ernest Rodriguez
Andrew Garfield as Todd Hayes
Peter Berg as Lt. Col. Falco
Kevin Dunn as ANX Editor
Derek Luke as Arian Finch
Larry Bates as Soldier
Christopher May as Soldier

Details
Name:Lions For Lambs (2007) 1080p Dual Audio [Hindi DD 5.1Ch @448 kbps -English 5.1Ch @224 kbps] [Dz...
Description:
Lions For Lambs (2007) 1080p Dual Audio [Hindi DD 5.1Ch @448 kbps -English 5.1Ch @224 kbps] [Dzrg Torrents®].mkv
Lions-for-_Lambs-_Poster-02-_By--_Sworld4ufree.Blogspot.Com



General
Format                                   : Matroska
Format version                           : Version 4 / Version 2
File size                                : 2.03 GiB
Duration                                 : 1 h 31 min
Overall bit rate                         : 3 173 kb/s
Encoded date                             : UTC 2017-05-17 04:39:34
Writing application                      : mkvmerge v9.9.0 ('Pick Up') 64bit
Writing library                          : libebml v1.3.4 + libmatroska v1.4.5




Video
ID                                       : 1
Format                                   : AVC
Format/Info                              : Advanced Video Codec
Format profile                           : High@L4.1
Format settings, CABAC                   : Yes
Format settings, ReFrames                : 4 frames
Codec ID                                 : V_MPEG4/ISO/AVC
Duration                                 : 1 h 31 min
Bit rate                                 : 2 500 kb/s
Width                                    : 1 920 pixels
Height                                   : 800 pixels
Display aspect ratio                     : 2.40:1
Frame rate mode                          : Constant
Frame rate                               : 23.976 (24000/1001) FPS
Color space                              : YUV
Chroma subsampling                       : 4:2:0
Bit depth                                : 8 bits
Scan type                                : Progressive
Bits/(Pixel*Frame)                       : 0.068
Stream size                              : 1.60 GiB (79%)
Title                                    : Lions For Lambs (2007) 1080p [Dzrg Torrents®]
Writing library                          : x264 core 148 r2597M e86f3a1
Default                                  : Yes
Forced                                   : No
 



Audio #1
ID                                       : 2
Format                                   : AC-3
Format/Info                              : Audio Coding 3
Mode extension                           : CM (complete main)
Format settings, Endianness              : Big
Codec ID                                 : A_AC3
Duration                                 : 1 h 31 min
Bit rate mode                            : Constant
Bit rate                                 : 448 kb/s
Channel(s)                               : 6 channels
Channel positions                        : Front: L C R, Side: L R, LFE
Sampling rate                            : 48.0 kHz
Frame rate                               : 31.250 FPS (1536 spf)
Bit depth                                : 16 bits
Compression mode                         : Lossy
Delay relative to video                  : 1 s 0 ms
Stream size                              : 293 MiB (14%)
Title                                    : DD 5.1Ch 448 kbps
Language                                 : Hindi
Default                                  : Yes
Forced                                   : No




Audio #2
ID                                       : 3
Format                                   : AAC
Format/Info                              : Advanced Audio Codec
Format profile                           : LC
Codec ID                                 : A_AAC
Duration                                 : 1 h 31 min
Bit rate                                 : 224 kb/s
Channel(s)                               : 6 channels
Channel positions                        : Front: L C R, Side: L R, LFE
Sampling rate                            : 48.0 kHz
Frame rate                               : 46.875 FPS (1024 spf)
Compression mode                         : Lossy
Stream size                              : 147 MiB (7%)
Title                                    : 224 kbps
Language                                 : English
Default                                  : No
Forced                                   : No




Text
ID                                       : 4
Format                                   : UTF-8
Codec ID                                 : S_TEXT/UTF8
Codec ID/Info                            : UTF-8 Plain Text
Duration                                 : 1 h 23 min
Bit rate                                 : 91 b/s
Count of elements                        : 1538
Stream size                              : 55.8 KiB (0%)
Title                                    : Subtitle
Language                                 : English
Default                                  : Yes
Forced                                   : No




Category:Movies > Hollywood Dub
Lang:Hindi
Total Size:2.03 GB





:download:

|| Download This Movie Via Single Resumable Links Size: 2.03 GB ||

Direct-1 Google Drive | Direct-2 | Direct-3 |

Watch Online Click Here

No comments:

Post a Comment