Crazy World Only 4 You

Sorry For The Inconvenience. If You are facing link dead or no google drive file access then inform us via comment

Latest Updates

Saturday, 28 April 2018

Maze Runner The Death Cure (2018) BluRay 720p x264 Dual Audio [Hindi DD5.1 - English DD5.1] - Msubs ~Ranvijay


Poster


iMDB
Imdb Picture Title: Maze Runner: The Death Cure
Year: 2018
Runtime: 142 minutes
Votes: 4185
Rating: 7.1/10
Language: English
Country: USA
All Genres: Action, Sci-Fi, Thriller
Plot Outline: Young hero Thomas embarks on a mission to find a cure for a deadly disease known as the "Flare".
Tagline: Every Maze Has An End
Director: Wes Ball
Writing By: T.S. Nowlin,James Dashner,
Produced By: Wes Ball,Marty Bowen,Lorenzo di Bonaventura,Eddie Gamarra,Wyck Godfrey,Ellen Goldsmith-Vein,Joe Hartwick Jr.,T.S. Nowlin,Patrick B. O'Brien,Daniel M. Stillman,Lee Stollman,Lindsay Williams,
Music: John Paesano
Cast:
Dylan O'Brien as Thomas
Ki Hong Lee as Minho
Kaya Scodelario as Teresa
Thomas Brodie-Sangster as Newt
Dexter Darden as Frypan
Will Poulter as Gally
Jacob Lofland as Aris
Rosa Salazar as Brenda
Giancarlo Esposito as Jorge
Patricia Clarkson as Ava Paige
Trailers:
Theatrical Trailer
Trailer #1

Details
Name:Maze Runner The Death Cure (2018) BluRay 720p x264 Dual Audio [Hindi DD5.1 - English DD5.1] - Msubs ~Ranvijay
Description:
Maze Runner The Death Cure (2018) 720p BluRay x264 Dual Audio [Hindi DD5.1 - English DD5.1] - Msubs ~Ranvijay






Format                                   : Matroska
Format version                           : Version 4 / Version 2
File size                                : 1.60 GiB
Duration                                 : 2 h 23 min
Overall bit rate                         : 1 596 kb/s
Movie name                               : Maze Runner The Death Cure (2018) 720p BluRay x264 Dual Audio [Hindi DD5.1 - English DD5.1] - Msubs ~ Ranvijay

Video
Duration                                 : 2 h 23 min
Bit rate                                 : 909 kb/s
Width                                    : 1 280 pixels
Height                                   : 534 pixels
Display aspect ratio                     : 2.40:1
Frame rate mode                          : Constant
Frame rate                               : 23.976 (24000/1001) FPS
Stream size                              : 936 MiB (57%)
Title                                    : ~Ranvijay~

Audio #1
ID                                       : 2
Format                                   : AC-3
Format/Info                              : Audio Coding 3
Codec ID                                 : A_AC3
Duration                                 : 2 h 23 min
Bit rate mode                            : Constant
Bit rate                                 : 448 kb/s
Channel(s)                               : 6 channels
Channel positions                        : Front: L C R, Side: L R, LFE
Sampling rate                            : 48.0 kHz
Frame rate                               : 31.250 FPS (1536 SPF)
Bit depth                                : 16 bits
Compression mode                         : Lossy
Stream size                              : 461 MiB (28%)
Title                                    : ~Ranvijay~
Language                                 : Hindi
Service kind                             : Complete Main
Default                                  : Yes
Forced                                   : No

Audio #2
ID                                       : 3
Format                                   : AC-3
Format/Info                              : Audio Coding 3
Codec ID                                 : A_AC3
Duration                                 : 2 h 23 min
Bit rate mode                            : Constant
Bit rate                                 : 224 kb/s
Channel(s)                               : 6 channels
Channel positions                        : Front: L C R, Side: L R, LFE
Sampling rate                            : 48.0 kHz
Frame rate                               : 31.250 FPS (1536 SPF)
Bit depth                                : 16 bits
Compression mode                         : Lossy
Stream size                              : 231 MiB (14%)
Title                                    : ~Ranvijay~
Language                                 : English
Service kind                             : Complete Main
Default                                  : No
Forced                                   : No

Text #1
ID                                       : 4
Format                                   : PGS
Muxing mode                              : zlib
Codec ID                                 : S_HDMV/PGS
Codec ID/Info                            : Picture based subtitle format used on BDs/HD-DVDs
Duration                                 : 2 h 22 min
Bit rate                                 : 16.2 kb/s
Count of elements                        : 2792
Stream size                              : 16.5 MiB (1%)
Title                                    : ~Ranvijay~
Language                                 : Hindi
Default                                  : Yes
Forced                                   : No

Text #2
ID                                       : 5
Format                                   : PGS
Muxing mode                              : zlib
Codec ID                                 : S_HDMV/PGS
Codec ID/Info                            : Picture based subtitle format used on BDs/HD-DVDs
Duration                                 : 2 h 15 min
Bit rate                                 : 22.7 kb/s
Count of elements                        : 2778
Stream size                              : 22.0 MiB (1%)
Title                                    : ~Ranvijay~
Language                                 : English
Default                                  : No
Forced                                   : No 


0b43ae4ed8186d2310dbe8b9a346b4ef.th.png 1e3fa75da9b05b008348f1e5743f6859.th.png 025a486a619bf2bdec142ecc35e34d9f.th.png 7508673a11dd1299e627cb8fdc3bfd3c.th.png a0bcefa05f756c65157eb337be66114a.th.png 09cc8cc8e876d41a3f9e091c5558b172.th.png 9afaaa956f8400ef7a2b0b5eec0a20cf.th.png 4b86d4146402bb6562fd92145275a6b6.th.png
Category:Movies > 720P Bluray
Lang:Hindi
Total Size:1.60 GB



Sample

|| Download This Movie Via Single Resumable Links Size: 1.60 GB ||

Direct-1 Google Drive | Direct-2 | Direct-3 |

Watch Online Click Here

No comments:

Post a Comment