Crazy World Only 4 You

Sorry For The Inconvenience. If You are facing link dead or no google drive file access then inform us via comment

Latest Updates

Sunday, 29 April 2018

Mirchi Malini (2018) Hindi 720p WebHD x264 AAC ~Katyayan~


Poster


iMDB
Imdb Picture Title: Mirchi Malini
Year: 2018
Votes: 37
Rating: 7.5/10
Language: Hindi
Country: India
All Genres: Thriller
Director: Pratim D. Gupta
Writing By: Pratim D. Gupta,Raj Vasant,
Produced By: Rahul Bhanja,Avishek Ghosh,Sujoy Ghosh,Suresh Nair,
Music: Raja Narayan Deb
Cast:
Tara-Alisha Berry as Kusum
Neha Chauhan as Monika
Paoli Dam as Mirchi Malini
Shradha Das as Damini
Akshay Oberoi as Arjun
Rukhsar Rehman as Rita Malik



Details
Name:Mirchi Malini (2018) Hindi 720p WebHD x264 AAC ~Katyayan~
Description:
Mirchi Malini 2018 Hindi 720p WebHD x264 AAC ~Katyayan~



General
Format                                   : Matroska
Format version                           : Version 4 / Version 2
File size                                : 358 MiB
Duration                                 : 43 min 59 s
Overall bit rate                         : 1 137 kb/s
Movie name                               : Mirchi Malini 2018 Hindi 720p WebHD x264 AAC ~Katyayan~
Encoded date                             : UTC 2018-05-04 06:50:26
Writing application                      : mkvmerge v19.0.0 ('Brave Captain') 32-bit
Writing library                          : libebml v1.3.5 + libmatroska v1.4.8

Video
ID                                       : 1
Format                                   : AVC
Format/Info                              : Advanced Video Codec
Format profile                           : High@L4.1
Format settings                          : CABAC / 4 Ref Frames
Format settings, CABAC                   : Yes
Format settings, RefFrames               : 4 frames
Codec ID                                 : V_MPEG4/ISO/AVC
Duration                                 : 43 min 59 s
Bit rate                                 : 1 000 kb/s
Width                                    : 1 280 pixels
Height                                   : 720 pixels
Display aspect ratio                     : 16:9
Frame rate mode                          : Constant
Frame rate                               : 23.976 (24000/1001) FPS
Color space                              : YUV
Chroma subsampling                       : 4:2:0
Bit depth                                : 8 bits
Scan type                                : Progressive
Bits/(Pixel*Frame)                       : 0.045
Stream size                              : 313 MiB (88%)
Title                                    : Mirchi Malini 2018 Hindi 720p WebHD x264 AAC ~Katyayan~
Writing library                          : x264 core 148 r2705kMod 3f5ed56
Language                                 : Hindi
Default                                  : Yes
Forced                                   : Yes

Audio
ID                                       : 2
Format                                   : AAC
Format/Info                              : Advanced Audio Codec
Format profile                           : HE-AAC / LC
Format settings                          : Explicit
Codec ID                                 : A_AAC-2
Duration                                 : 43 min 59 s
Bit rate                                 : 139 kb/s
Channel(s)                               : 2 channels
Channel positions                        : Front: L R
Sampling rate                            : 48.0 kHz / 24.0 kHz
Frame rate                               : 23.438 FPS (1024 SPF)
Compression mode                         : Lossy
Stream size                              : 43.8 MiB (12%)
Title                                    : ~Katyayan~
Language                                 : Hindi
Default                                  : Yes
Forced                                   : Yes

Text
ID                                       : 3
Format                                   : UTF-8
Codec ID                                 : S_TEXT/UTF8
Codec ID/Info                            : UTF-8 Plain Text
Duration                                 : 40 min 2 s
Bit rate                                 : 12 b/s
Count of elements                        : 3
Stream size                              : 3.76 KiB (0%)
Title                                    : ~Katyayan~
Language                                 : Hindi
Default                                  : Yes
Forced                                   : Yes


 


Category:Movies > Bollywood
Lang:Hindi
Total Size:359.54 MB



|| Download This Movie Via Single Resumable Links Size: 358 MB ||

Direct-1 Google Drive | Direct-2 | Direct-3 |

Watch Online Click Here

No comments:

Post a Comment