Mukkabaaz (2017) Hindi 720p Web-HD x264 AAC MSubs


Poster
Mukkabaaz-_By--_Sworld4ufree.Blogspot.Com


iMDB
Imdb Picture Original Title: Mukkabaaz
Title: The Brawler
Year: 2017
Runtime: 154 minutes
Votes: 1097
Rating: 8.5/10
Language: Hindi
Country: India
All Genres: Action, Drama, Sport
Plot Outline: A lower caste boxer struggles to make his mark on the boxing world.
Director: Anurag Kashyap
Writing By: Ranjan Chandel,Anurag Kashyap,Prasoon Mishra,Singh Srinet Mukti,K.D. Satyam,Vineet Kumar Singh,
Produced By: Vishesh Agrawal,Anurag Kashyap,Madhu Mantena Varma,Vikramaditya Motwane,Ajay Rai,Anand L. Rai,
Music: Rachita Arora
Cast:
Vineet Kumar Singh as Shravan
Zoya Hussain as Sunaina
Ravi Kishan as Sanjay Kumar
Jimmy Shergill as Bhagwan
Rajesh Tailang as Vijay Singh
Shreedhar Dubey as Gopal Tiwari
Trailers:
Mukkabaaz Trailer

Details
Name:Mukkabaaz (2017) Hindi 720p Web-HD x264 AAC
Description:

Mukkabaaz (2017) Hindi 720p Web-HD x264 AAC MSubs

Mukkabaaz-_By--_Sworld4ufree.Blogspot.Com

Format                                   : Matroska
Format version                           : Version 4 / Version 2
File size                                : 1.36 GiB
Duration                                 : 2 h 35 min
Overall bit rate                         : 1 253 kb/s

Video
ID                                       : 1
Format                                   : AVC
Format/Info                              : Advanced Video Codec
Format profile                           : Main@L3.1
Format settings                          : CABAC / 4 Ref Frames
Format settings, CABAC                   : Yes
Format settings, RefFrames               : 4 frames
Codec ID                                 : V_MPEG4/ISO/AVC
Duration                                 : 2 h 35 min
Bit rate                                 : 1 128 kb/s
Width                                    : 1 280 pixels
Height                                   : 544 pixels
Display aspect ratio                     : 2.35:1
Frame rate mode                          : Constant
Frame rate                               : 24.000 FPS
Color space                              : YUV
Chroma subsampling                       : 4:2:0
Bit depth                                : 8 bits
Scan type                                : Progressive
Bits/(Pixel*Frame)                       : 0.067
Stream size                              : 1.22 GiB (90%)
Writing library                          : x264 core 112
Language                                 : English
Default                                  : Yes
Forced                                   : No
Color range                              : Limited
Color primaries                          : BT.709
Transfer characteristics                 : BT.709
Matrix coefficients                      : BT.709

Audio
ID                                       : 2
Format                                   : AAC
Format/Info                              : Advanced Audio Codec
Format profile                           : LC
Codec ID                                 : A_AAC-2
Duration                                 : 2 h 35 min
Bit rate                                 : 127 kb/s
Channel(s)                               : 2 channels
Channel positions                        : Front: L R
Sampling rate                            : 48.0 kHz
Frame rate                               : 46.875 FPS (1024 SPF)
Compression mode                         : Lossy
Stream size                              : 141 MiB (10%)
Language                                 : Hindi
Default                                  : Yes
Forced                                   : No


76d5b6a17e3bafe051294a3a35e9b96f.th.png b249b7aad47b2f24f4372b6f07ed7cc1.th.png 1eb838143220620428943af430069c3b.th.png 31a481ddc141cf59c575d0c616d76aed.th.png 25ce6c9f788ddc1604f2a4af92327188.th.png 1c800b79b9d67af3619694681e74c32e.th.png 55a60f58f80e42b332a1bbbeecb2a780.th.png 7a2fccf2189fe1c3ffc52d5a4baae0b3.th.png 2a0c52d4cfc8548f02641378087032b4.th.png 100df85ea63a28a1797eba8410a7a3b6.th.png e70399ba2d9b0fcb74a3d7ee78677f1e.th.png b3cc20da6df1708ebdda1e84c9ea2443.th.png
Category:Movies > Bollywood
Lang:Hindi
Total Size:1.36 GB



:download:

|| Download This Movie Via Single Resumable Links Size: 1.36 GB ||

Direct-1 Google Drive | Direct-2 | Direct-3 |

Watch Online Click Here

Post a Comment

0 Comments