Crazy World Only 4 You

Sorry For The Inconvenience. If You are facing link dead or no google drive file access then inform us via comment

Latest Updates

Wednesday, 18 April 2018

Music and Lyrics (2007) BluRay 720p x264 Dual Audio [Hindi + Eng] Esubs Exclusive By Maher


Poster


iMDB
Imdb Picture Title: Music and Lyrics
Year: 2007
Runtime: 95 minutes
Votes: 88066
Rating: 6.5/10
Language: English
Country: USA
All Genres: Comedy, Music, Romance
Plot Outline: A washed up singer is given a couple days to compose a chart-topping hit for an aspiring teen sensation. Though he's never written a decent lyric in his life, he sparks with an offbeat younger woman with a flair for words.
Tagline: Share the music with someone you love.
Director: Marc Lawrence
Writing By: Marc Lawrence,
Produced By: Bruce Berman,Scott Elias,Hal Gaba,Liz Glotzer,Nancy Juvonen,Martin Shafer,Melissa Wells,
Music: Adam Schlesinger
Cast:
Hugh Grant as Alex Fletcher
Scott Porter as Colin Thompson
Nick Bacon as Pop Bass Player
Andrew Wyatt as Pop Guitar Player
Dan McMillan as Pop Drummer
Tom Foligno as Has-Beens Promo Announcer
Zak Orth as David Newbert - TV Executive #1
Brooke Tansley as Janice Stern - TV Executive #2
Daniel Stewart Sherman as Willy
Brad Garrett as Chris Riley
Trailers:
Music and Lyrics
Music and Lyrics
Music and Lyrics

Details
Name:The Ninth Gate (1999) BluRay 720p x264 Dual Audio [Hindi - English] AAC Esub ~Katyayan~
Description:
Music and Lyrics 2007 x264 720p Dual Audio [Hindi + Eng] BluRay Esubs Exclusive By Maher

-= Share the music with someone you love =-

-=Exclusive By -=MAHER=-


Format                                   : Matroska
Format version                           : Version 4 / Version 2
File size                                : 947 MiB
Duration                                 : 1 h 44 min
Overall bit rate                         : 1 271 kb/s

Video
ID                                       : 1
Format                                   : AVC
Format/Info                              : Advanced Video Codec
Format profile                           : High@L4.1
Format settings                          : CABAC / 5 Ref Frames
Format settings, CABAC                   : Yes
Format settings, RefFrames               : 5 frames
Codec ID                                 : V_MPEG4/ISO/AVC
Duration                                 : 1 h 44 min
Bit rate                                 : 985 kb/s
Width                                    : 1 280 pixels
Height                                   : 720 pixels
Display aspect ratio                     : 16:9
Frame rate mode                          : Constant
Frame rate                               : 23.976 (24000/1001) FPS
Original frame rate                      : 23.976 (23976/1000) FPS
Color space                              : YUV
Chroma subsampling                       : 4:2:0
Bit depth                                : 8 bits
Scan type                                : Progressive
Bits/(Pixel*Frame)                       : 0.045
Stream size                              : 734 MiB (77%)
Writing library                          : x264 core 138 r2 9e941d1
Default                                  : Yes
Forced                                   : No
Color range                              : Limited
Color primaries                          : BT.709
Matrix coefficients                      : BT.709

Audio #1
ID                                       : 2
Format                                   : AAC
Format/Info                              : Advanced Audio Codec
Format profile                           : LC
Codec ID                                 : A_AAC-2
Duration                                 : 1 h 44 min
Bit rate                                 : 93.8 kb/s
Channel(s)                               : 2 channels
Channel positions                        : Front: L R
Sampling rate                            : 48.0 kHz
Frame rate                               : 46.875 FPS (1024 SPF)
Compression mode                         : Lossy
Stream size                              : 69.9 MiB (7%)
Language                                 : English
Default                                  : No
Forced                                   : No

Audio #2
ID                                       : 3
Format                                   : AAC
Format/Info                              : Advanced Audio Codec
Format profile                           : LC
Codec ID                                 : A_AAC-2
Duration                                 : 1 h 44 min
Bit rate                                 : 192 kb/s
Channel(s)                               : 2 channels
Channel positions                        : Front: L R
Sampling rate                            : 48.0 kHz
Frame rate                               : 46.875 FPS (1024 SPF)
Compression mode                         : Lossy
Stream size                              : 141 MiB (15%)
Title                                    : By-MAHER
Language                                 : Hindi
Default                                  : Yes
Forced                                   : Yes

Text
ID                                       : 4
Format                                   : UTF-8
Codec ID                                 : S_TEXT/UTF8
Codec ID/Info                            : UTF-8 Plain Text
Duration                                 : 1 h 36 min
Bit rate                                 : 88 b/s
Count of elements                        : 1482
Stream size                              : 63.2 KiB (0%)
Default                                  : Yes
Forced                                   : No






Category:Movies > Hollywood Dub
Lang:Hindi
Total Size:981.77 MB



:download:

|| Download This Movie Via Single Resumable Links Size: 947 MB ||

Direct-1 Google Drive | Direct-2 | Direct-3 |

Watch Online Click Here

No comments:

Post a Comment