Neighbors 2: Sorority Rising (2016) BluRay 720p x264 Dual Audio [Hindi DD 5.1 - Eng][Team SSX]


Poster
9200000059430173.jpg


iMDB
Imdb Picture Title: Neighbors 2: Sorority Rising
Year: 2016
Runtime: 92 minutes
Votes: 90619
Rating: 5.7/10
Language: English
Country: USA, China
All Genres: Comedy
Plot Outline: When their new next-door neighbors turn out to be a sorority even more debaucherous than the fraternity previously living there, Mac and Kelly team with their former enemy, Teddy, to bring the girls down.
Tagline: There's a new war next door
Director: Nicholas Stoller
Writing By: Andrew Jay Cohen,Brendan O'Brien,Nicholas Stoller,Evan Goldberg,Seth Rogen,Andrew Jay Cohen,Brendan O'Brien,
Produced By: Maria Blasucci,Andrew Jay Cohen,Joseph Drake,Josh Fagen,Ted Gidlow,Evan Goldberg,Kyle Hunter,Nathan Kahane,Amanda Lund,Brendan O'Brien,Seth Rogen,Douglas I. Schwartz,Ariel Shaffir,James Weaver,Erin Westerman,
Music: Michael Andrews
Cast:
Seth Rogen as Mac Radner
Zac Efron as Teddy Sanders
Rose Byrne as Kelly Radner
Chloƫ Grace Moretz as Shelby
Ike Barinholtz as Jimmy
Kiersey Clemons as Beth
Dave Franco as Pete
Jerrod Carmichael as Garf
Christopher Mintz-Plasse as Scoonie
Beanie Feldstein as Nora
Trailers:
Red Band Trailer
Official Trailer



Details
Name:Neighbors 2 Sorority Rising (2016) BluRay 720p x264 Dual Audio [Hindi DD 5.1 - Eng][Team SSX]
Description:
Neighbors 2 Sorority Rising (2016) BluRay 720p x264 Dual Audio [Hindi DD 5.1 - Eng][Team SSX]


9200000059430173.jpg


General

Format                                   : Matroska
Format version                           : Version 4 / Version 2
File size                                : 946 MiB
Duration                                 : 1 h 32 min
Overall bit rate                         : 1 431 kb/s


Video
ID                                       : 1
Format                                   : AVC
Format/Info                              : Advanced Video Codec
Format profile                           : High@L4.1
Format settings                          : CABAC / 5 Ref Frames
Format settings, CABAC                   : Yes
Format settings, RefFrames               : 5 frames
Codec ID                                 : V_MPEG4/ISO/AVC
Duration                                 : 1 h 32 min
Bit rate                                 : 949 kb/s
Width                                    : 1 280 pixels
Height                                   : 536 pixels
Display aspect ratio                     : 2.40:1
Frame rate mode                          : Constant
Frame rate                               : 23.976 (24000/1001) FPS
Color space                              : YUV
Chroma subsampling                       : 4:2:0
Bit depth                                : 8 bits
Scan type                                : Progressive
Bits/(Pixel*Frame)                       : 0.058
Stream size                              : 627 MiB (66%)
Default                                  : Yes
Forced                                   : No
Color range                              : Limited
Color primaries                          : BT.709
Matrix coefficients                      : BT.709

Audio #1
ID                                       : 2
Format                                   : AAC
Format/Info                              : Advanced Audio Codec
Format profile                           : LC
Codec ID                                 : A_AAC-2
Duration                                 : 1 h 32 min
Bit rate                                 : 96.0 kb/s
Channel(s)                               : 2 channels
Channel positions                        : Front: L R
Sampling rate                            : 48.0 kHz
Frame rate                               : 46.875 FPS (1024 SPF)
Compression mode                         : Lossy
Delay relative to video                  : -21 ms
Stream size                              : 63.4 MiB (7%)
Language                                 : English
Default                                  : No
Forced                                   : No

Audio #2
ID                                       : 3
Format                                   : AC-3
Format/Info                              : Audio Coding 3
Codec ID                                 : A_AC3
Duration                                 : 1 h 32 min
Bit rate mode                            : Constant
Bit rate                                 : 384 kb/s
Channel(s)                               : 6 channels
Channel positions                        : Front: L C R, Side: L R, LFE
Sampling rate                            : 48.0 kHz
Frame rate                               : 31.250 FPS (1536 SPF)
Bit depth                                : 16 bits
Compression mode                         : Lossy
Delay relative to video                  : -21 ms
Stream size                              : 254 MiB (27%)
Language                                 : Hindi
Service kind                             : Complete Main
Default                                  : Yes
Forced                                   : No



2b7afc8ec03e26e2d7dd9085319b4d48.th.png 2840fb502f39ab1938297f12b7bd11cd.th.png c822802c4a38f9190cdd6b302eee33a8.th.png d9c959ccb06b1d9387bdf4f56f3d8fe3.th.png 97fa4bbb72c230eb495bc47eeb90bed6.th.png fc8755416d8101c95b162e08dc1d6fc3.th.png 8d57bb9d2dbde7462c523acf37f4a3c9.th.png 9947d8dda03fa4df183f7552e19786cb.th.png 743e2b43cb43d8ef927eba39c58f0155.th.png a7ea50a28528a3b213b51f0d1e737b65.th.png 9e0a4335ebe241edb4ef96dcdebf4af6.th.png 4da72b5ed8158c93b1e0285e84b6ac59.th.png b4fa06c0f104e2542d926f9cee7d2d38.th.png 37fb380968f4bbedf41d8b0385132586.th.png 5d5bdff1b6d9f4ee5e624f171452e884.th.png 1ee797f7c5a9de8523124b1a5eb98720.th.png aa123a562408b50df8b5db319fb7ad31.th.png 790c253f21e8e8a62c2e8cc5985c9f26.th.png
Category:Movies > Hollywood Dub
Lang:Hindi
Total Size:945.78 MB



:download:

|| Download This Movie Via Single Resumable Links Size: 946 MB ||

Direct-1 Google Drive | Direct-2 | Direct-3 |

Watch Online Click Here

Post a Comment

0 Comments