Out Of The Furnace (2013) BluRay 720p x264 [Dual-Audio] [English DD 5.1 + Hindi DD 5.1] - Mafiaking - TeamTNT


Poster
jqn_Q5_Y3


iMDB
Imdb Picture Title: Out of the Furnace
Year: 2013
Runtime: 116 minutes
Votes: 89610
Rating: 6.8/10
Language: English
Country: UK, USA
All Genres: Crime, Drama, Thriller
Plot Outline: When Rodney Baze mysteriously disappears and law enforcement doesn't follow through fast enough, his older brother, Russell, takes matters into his own hands to find justice.
Tagline: Sometimes your battles choose you.
Director: Scott Cooper
Writing By: Brad Ingelsby,Scott Cooper,
Produced By: Riza Aziz,Robbie Brenner,Ron Burkle,Jason Colbeck,Michael Costigan,Jennifer Davisson,Leonardo DiCaprio,Danny Dimbort,Joe Gatta,Ken Halsband,Michael Ireland,Ryan Kavanaugh,Jamie Marshall,Joey McFarland,Christian Mercuri,Dana Reaves Bolla,John Ridley,Ridley Scott,Adam Simpson-Marshall,Tucker Tooley,Jeff G. Waxman,Brooklyn Weaver,Jason Beckman,Jason Colodne,Tony Scott,
Music: Dickon Hinchliffe
Plot:
Russell and his younger brother Rodney live in the economically-depressed Rust Belt, and have always dreamed of escaping and finding better lives. But when a cruel twist of fate lands Russell in prison, his brother becomes involved with one of the most violent and ruthless crime rings in the Northeast - a mistake that will cost him everything. Once released, Russell must choose between his own freedom, or risk it all to seek justice for his brother.
- Written by Production
When Rodney Baze mysteriously disappears and law enforcement doesn't follow through fast enough, his older brother, Russell, takes matters into his own hands to find justice.
- Written by Relativity Media
Cast:
Woody Harrelson as Harlan DeGroat
Dendrie Taylor as DeGroat's Date
Carl Ciarfalio as Man at Drive In
Nancy Mosser as Woman at Drive In
Christian Bale as Russell Baze
Casey Affleck as Rodney Baze Jr.
Zoe Saldana as Lena Taylor
Sam Shepard as Gerald 'Red' Baze
Bingo O'Malley as Rodney Baze Sr.
Tom Bower as Dan Dugan
Trailers:
UK Trailer
Trailer #2
Trailer #1

    

Details
Name:Out Of The Furnace (2013) BluRay 720p x264 [Dual-Audio] [English DD 5.1 + Hindi DD 5.1] - Mafiaking - TeamTNT
Description:
Out Of The Furnace (2013) BluRay 720p x264 [Dual-Audio] [English DD 5.1 + Hindi DD 5.1] - Mafiaking - TeamTNT



jqn_Q5_Y3

General
Unique ID : 205167527173424402081720239138023338363 (0x9A59D41353E725C6979C1888D51AF17B)
Complete name : Out Of The Furnace (2013) 720p Blu-Ray x264 [Dual-Audio][English DD 5.1 + Hindi DD 5.1] - Mafiaking - TeamTNT.mkv
Format : Matroska
Format version : Version 4 / Version 2
File size : 1.07 GiB
Duration : 1h 56mn
Overall bit rate : 1 318 Kbps
Movie name : Out Of The Furnace (2013) 720p Blu-Ray x264 [Dual-Audio][English DD 5.1 + Hindi DD 5.1] - Mafiaking - TeamTNT
Encoded date : UTC 2014-08-02 19:21:44
Writing application : mkvmerge v7.0.0 ('Where We Going') 32bit built on Jun 9 2014 15:08:34
Writing library : libebml v1.3.0 + libmatroska v1.4.1


Video
ID : 1
Format : AVC
Format/Info : Advanced Video Codec
Format profile : High@L3.1
Format settings, CABAC : Yes
Format settings, ReFrames : 4 frames
Codec ID : V_MPEG4/ISO/AVC
Duration : 1h 56mn
Bit rate : 900 Kbps
Width : 1 280 pixels
Height : 534 pixels
Display aspect ratio : 2.40:1
Frame rate mode : Constant
Frame rate : 23.976 fps
Color space : YUV
Chroma subsampling : 4:2:0
Bit depth : 8 bits
Scan type : Progressive
Bits/(Pixel*Frame) : 0.055
Stream size : 727 MiB (66%)
Title : Mafiaking@TeamTNT
Language : English
Default : Yes
Forced : No


Audio #1
ID : 2
Format : AC-3
Format/Info : Audio Coding 3
Mode extension : CM (complete main)
Format settings, Endianness : Big
Codec ID : A_AC3
Duration : 1h 56mn
Bit rate mode : Constant
Bit rate : 224 Kbps
Channel(s) : 6 channels
Channel positions : Front: L C R, Side: L R, LFE
Sampling rate : 48.0 KHz
Bit depth : 16 bits
Compression mode : Lossy
Stream size : 186 MiB (17%)
Title : Mafiaking
Language : Hindi
Default : Yes
Forced : No


Audio #2
ID : 3
Format : AC-3
Format/Info : Audio Coding 3
Mode extension : CM (complete main)
Format settings, Endianness : Big
Codec ID : A_AC3
Duration : 1h 56mn
Bit rate mode : Constant
Bit rate : 192 Kbps
Channel(s) : 6 channels
Channel positions : Front: L C R, Side: L R, LFE
Sampling rate : 48.0 KHz
Bit depth : 16 bits
Compression mode : Lossy
Stream size : 159 MiB (15%)
Title : Mafiaking@TeamTNT
Language : English
Default : No
Forced : No

Special Thanks PYZ For Hindi Audio.

DtdofiM.th.jpg MWN44sz.th.jpg IrlZTBB.th.jpg sHDv7Ev.th.jpg G9FcgBT.th.jpg sz8ROhq.th.jpg CsGQIX5.th.jpg wZxJqSm.th.jpg Z1W1meD.th.jpg CjFZxA0.th.jpg
Category:Movies > Hollywood Dub
Lang:Hindi
Total Size:1.08 GB



:download:

|| Download This Movie Via Single Resumable Links Size: 1.07 GB ||

Direct-1 Google Drive | Direct-2 | Direct-3 |

Watch Online Click Here

Post a Comment

3 Comments

  1. Thankss admin.. plz upload more movies like this...

    ReplyDelete
  2. Replies
    1. Sorry for the inconvenience. Just clear the file you saved on your own Google Drive and then try again

      Delete