Crazy World Only 4 You

Sorry For The Inconvenience. If You are facing link dead or no google drive file access then inform us via comment

Latest Updates

Wednesday, 25 April 2018

Paul (2011) BluRay 720p x264 Dual Audio [Hindi DD5.1 - English DD5.1] - Esub ~ Ranvijay


Poster
647f9b450e9f1d87a5d45cd6c8087653.jpg


iMDB
Imdb Picture Title: Paul
Year: 2011
Runtime: 104 minutes
Votes: 210433
Rating: 7.0/10
Language: English, Klingon
Country: USA, UK
All Genres: Adventure, Comedy, Sci-Fi
Plot Outline: Two English comic book geeks traveling across the U.S. encounter an alien outside Area 51.
Tagline: Only Girls Phone Home
Director: Greg Mottola
Writing By: Simon Pegg,Nick Frost,
Produced By: Tim Bevan,Liza Chasin,Eric Fellner,Robert Graf,Debra Hayward,Nira Park,Adam Schardein,Natascha Wharton,
Music: David Arnold
Cast:
Mia Stallard as Young Tara
Simon Pegg as Graeme Willy
Nick Frost as Clive Gollings
Jeremy Owen as Sword Vendor
Jeffrey Tambor as Adam Shadowchild
David House as Security Guard
Jennifer Granger as Adam Shadowchild Fan
Nelson Ascencio as Jorge
Bobby Lee as Valet
Jane Lynch as Pat Stevens
Trailers:
Paul: U.S. Trailer #1
Paul: International Trailer #2
Paul: International Trailer

Details
Name:Paul (2011) BluRay 720p x264 Dual Audio [Hindi DD5.1 - English DD5.1] - Esub ~ Ranvijay
Description:
Paul (2011) 720p BluRay x264 Dual Audio [Hindi DD5.1 - English DD5.1] - Esub ~ Ranvijay 

Thanks To Hammer For Hindi Audio
  
Format                                   : Matroska
Format version                           : Version 4 / Version 2
File size                                : 1.04 GiB
Duration                                 : 1 h 43 min
Overall bit rate                         : 1 429 kb/s
Movie name                               : Paul (2011) 720p BluRay x264 Dual Audio [Hindi DD5.1 - English DD5.1] - Esub ~ Ranvijay

Video
ID                                       : 1
Duration                                 : 1 h 43 min
Bit rate                                 : 980 kb/s
Width                                    : 1 280 pixels
Height                                   : 544 pixels
Display aspect ratio                     : 2.35:1
Frame rate mode                          : Constant
Frame rate                               : 23.976 (24000/1001) FPS
Stream size                              : 727 MiB (69%)
Title                                    : ~Ranvijay~
Default                                  : Yes
Forced                                   : No

Audio #1
ID                                       : 2
Format                                   : AC-3
Format/Info                              : Audio Coding 3
Codec ID                                 : A_AC3
Duration                                 : 1 h 43 min
Bit rate mode                            : Constant
Bit rate                                 : 224 kb/s
Channel(s)                               : 6 channels
Channel positions                        : Front: L C R, Side: L R, LFE
Sampling rate                            : 48.0 kHz
Frame rate                               : 31.250 FPS (1536 SPF)
Bit depth                                : 16 bits
Compression mode                         : Lossy
Delay relative to video                  : -83 ms
Stream size                              : 166 MiB (16%)
Title                                    : ~Ranvijay~
Language                                 : Hindi
Service kind                             : Complete Main
Default                                  : Yes
Forced                                   : No

Audio #2
ID                                       : 3
Format                                   : AC-3
Format/Info                              : Audio Coding 3
Codec ID                                 : A_AC3
Duration                                 : 1 h 43 min
Bit rate mode                            : Constant
Bit rate                                 : 224 kb/s
Channel(s)                               : 6 channels
Channel positions                        : Front: L C R, Side: L R, LFE
Sampling rate                            : 48.0 kHz
Frame rate                               : 31.250 FPS (1536 SPF)
Bit depth                                : 16 bits
Compression mode                         : Lossy
Delay relative to video                  : -83 ms
Stream size                              : 166 MiB (16%)
Title                                    : ~Ranvijay~
Language                                 : English
Service kind                             : Complete Main
Default                                  : No
Forced                                   : No

Text
ID                                       : 4
Format                                   : UTF-8
Codec ID                                 : S_TEXT/UTF8
Codec ID/Info                            : UTF-8 Plain Text
Duration                                 : 1 h 37 min
Bit rate                                 : 77 b/s
Count of elements                        : 1815
Stream size                              : 55.7 KiB (0%)
Title                                    : ~Ranvijay~
Language                                 : English
Default                                  : Yes
Forced                                   : No

Menu
00:00:00.000                             : :01
00:05:25.325                             : :02
00:11:20.763                             : :03
00:16:52.636                             : :04
00:23:53.890                             : :05
00:28:58.445                             : :06
00:31:24.591                             : :07
00:36:50.333                             : :08
00:40:54.618                             : :09
00:43:57.426                             : :10
00:51:13.320                             : :11
00:56:30.386                             : :12
01:00:42.347                             : :13
01:07:01.142                             : :14
01:11:41.755                             : :15
01:18:28.412                             : :16
01:21:06.486                             : :17
01:26:53.124                             : :18
01:30:45.940                             : :19
01:35:29.640                             : :20 
3ebbb1be600d4c1d12be5ff8a10e55b4.th.png bc831f72e792a12a51161c80b0b7d435.th.png 0e891dd32f00f089fb03cf4ab6b72cf7.th.png a76aeb70aaf907466d7428548433cea9.th.png 6ffc64a6ea053a1ed9f9fc4384675bc0.th.png 58b8e648a6b9662edc28b41a0c4a09c0.th.png 03ea37199940ab0d096000dc7e3e454a.th.png 91ea5e01f3c180f51bb36f5800cf81c8.th.png
Category:Movies > Hollywood Dub
Lang:Hindi
TotalSize:1.06 GB



|| Download This Movie Via Single Resumable Links Size: 1.04 GB ||

Direct-1 Google Drive | Direct-2 | Direct-3 |

Watch Online Click Here

No comments:

Post a Comment