Crazy World Only 4 You

Sorry For The Inconvenience. If You are facing link dead or no google drive file access then inform us via comment

Latest Updates

Monday, 9 April 2018

Pixels (2015) BluRay 720p Dual Audio [Hindi + Eng] Esubs x264 Exclusive By Maher


Poster
image


iMDB
Imdb Picture Title: Pixels
Year: 2015
Runtime: 105 minutes
Votes: 105352
Rating: 5.6/10
Language: English, Hindi, Japanese, English
Country: USA, China, Canada
All Genres: Action, Comedy, Family, Sci-Fi
Plot Outline: When aliens misinterpret video feeds of classic arcade games as a declaration of war, they attack the Earth in the form of the video games.
Tagline: The world needed heroes. They got these guys.
Director: Chris Columbus
Writing By: Tim Herlihy,Timothy Dowling,Tim Herlihy,Patrick Jean,
Produced By: Johnny Alves,Michael Barnathan,Barry Bernardi,Matias Boucard,Chris Columbus,Allen Covert,Benjamin Darras,Jack Giarraputo,Seth Gordon,Kevin Grady,Tim Herlihy,Patrick Jean,Yuka Kato,Steve Koren,Lyn Lucibello,Heather Parry,Mark Radcliffe,Adam Sandler,Ben Waisbren,
Music: Henry Jackman
Cast:
Adam Sandler as Brenner
Kevin James as President Will Cooper
Michelle Monaghan as Violet
Peter Dinklage as Eddie
Josh Gad as Ludlow Lamonsoff
Matt Lintz as Matty Van Patten
Brian Cox as Admiral Porter
Sean Bean as Corporal Hill (SAS Officer)
Jane Krakowski as First Lady Jane Cooper
Dan Aykroyd as 1982 Championship MC
Trailers:
Trailer #2
Exclusive Trailer


Details
Name:Pixels (2015) BluRay 720p Dual Audio [Hindi + Eng] Esubs x264 Exclusive By Maher
Description:
Pixels 2015 x264 720p Dual Audio [Hindi + Eng] BluRay Esubs Exclusive By Maher
91D99JxA7cL._SL1500_.jpg
Format                                   : Matroska
Format version                           : Version 4 / Version 2
File size                                : 954 MiB
Duration                                 : 1 h 45 min
Overall bit rate                         : 1 261 kb/s

Video
ID                                       : 1
Format                                   : AVC
Format/Info                              : Advanced Video Codec
Format profile                           : High@L4.1
Format settings                          : CABAC / 4 Ref Frames
Format settings, CABAC                   : Yes
Format settings, RefFrames               : 4 frames
Codec ID                                 : V_MPEG4/ISO/AVC
Duration                                 : 1 h 45 min
Bit rate                                 : 975 kb/s
Width                                    : 1 280 pixels
Height                                   : 536 pixels
Display aspect ratio                     : 2.40:1
Frame rate mode                          : Constant
Frame rate                               : 23.976 (24000/1001) FPS
Original frame rate                      : 23.976 (23976/1000) FPS
Color space                              : YUV
Chroma subsampling                       : 4:2:0
Bit depth                                : 8 bits
Scan type                                : Progressive
Bits/(Pixel*Frame)                       : 0.059
Stream size                              : 738 MiB (77%)
Writing library                          : x264 core 123 r2189 35cf912
Default                                  : Yes
Forced                                   : No
Color range                              : Limited
Color primaries                          : BT.709
Matrix coefficients                      : BT.709

Audio #1
ID                                       : 2
Format                                   : AAC
Format/Info                              : Advanced Audio Codec
Format profile                           : LC
Codec ID                                 : A_AAC-2
Duration                                 : 1 h 45 min
Bit rate                                 : 93.7 kb/s
Channel(s)                               : 2 channels
Channel positions                        : Front: L R
Sampling rate                            : 48.0 kHz
Frame rate                               : 46.875 FPS (1024 SPF)
Compression mode                         : Lossy
Stream size                              : 71.0 MiB (7%)
Language                                 : English
Default                                  : No
Forced                                   : No

Audio #2
ID                                       : 3
Format                                   : AAC
Format/Info                              : Advanced Audio Codec
Format profile                           : LC
Codec ID                                 : A_AAC-2
Duration                                 : 1 h 45 min
Bit rate                                 : 192 kb/s
Channel(s)                               : 2 channels
Channel positions                        : Front: L R
Sampling rate                            : 48.0 kHz
Frame rate                               : 46.875 FPS (1024 SPF)
Compression mode                         : Lossy
Stream size                              : 143 MiB (15%)
Title                                    : By-MAHER
Language                                 : Hindi
Default                                  : Yes
Forced                                   : Yes

Text
ID                                       : 4
Format                                   : UTF-8
Codec ID                                 : S_TEXT/UTF8
Codec ID/Info                            : UTF-8 Plain Text
Duration                                 : 1 h 36 min
Bit rate                                 : 74 b/s
Count of elements                        : 1511
Stream size                              : 52.4 KiB (0%)
Default                                  : Yes
Forced                                   : No






Category:Movies > Hollywood Dub
Lang:Hindi
Total Size:965.23 MB



:download:

|| Download This Movie Via Single Resumable Links Size: 954 MB ||

Direct-1 Google Drive | Direct-2 | Direct-3 |

Watch Online Click Here

No comments:

Post a Comment