Crazy World Only 4 You

Sorry For The Inconvenience. If You are facing link dead or no google drive file access then inform us via comment

Latest Updates

Saturday, 7 April 2018

Shahid (2013) Hindi 720p DvDRip x264 AAC 5.1 Esub ~Katyayan~


Poster


iMDB
Imdb Picture Title: Shahid
Year: 2012
Runtime: 129 minutes
Votes: 10431
Rating: 8.3/10
Language: Hindi, Hindi
Country: India
All Genres: Biography, Crime, Drama
Plot Outline: The account of Human Rights lawyer Shahid Azmi, an ordinary citizen with an extraordinary commitment to justice.
Tagline: Based On The Life Of One Of The Most Controversial Figures Of Our Time.
Director: Hansal Mehta
Writing By: Sameer Gautam Singh,Sameer Gautam Singh,Sameer Gautam Singh,Hansal Mehta,Hansal Mehta,
Produced By: Sunil Bohra,Nikesh Chauhan,Achin Jain,Siddharth Roy Kapur,Anurag Kashyap,Guneet Monga,Sanjeev Singh Pal,Kunal Rohra,Ronnie Screwvala,Sandeep Singh,Shailesh R. Singh,Alok Arbind Thakur,Arbind Alok Thakur,Abhisek Vyas,Shaan Vyas,
Music: Karan Kulkarni
Cast:
Rajkummar Rao as Shahid Azmi
Mohammed Zeeshan Ayyub as Arif
Baljinder Kaur as Ammi
Tigmanshu Dhulia as Maqbool Menon
Kay Kay Menon as War saab
Vipin Sharma as Prosecutor More
Shalini Vatsa as Prosecutor Tambe
Vinod Rawat as Rafique
Suvinder Pal as Commander at camp
Pawan Kumar as Zaheer Sheikh

Details
Name:Shahid (2013) Hindi 720p DvDRip x264 AAC 5.1 Esub ~Katyayan~
Description:
Shahid (2013) Hindi 720p DvDRip x264 AAC 5.1 Esub ~Katyayan~
 

General
Format                                   : Matroska
Format version                           : Version 4 / Version 2
File size                                : 974 MiB
Duration                                 : 2 h 10 min
Overall bit rate                         : 1 043 kb/s
Movie name                               : Shahid (2013) Hindi 720p DvDRip x264 AAC 5.1 Esub ~Katyayan~

Video
ID                                       : 1
Format                                   : AVC
Format/Info                              : Advanced Video Codec
Format profile                           : Main@L3.1
Format settings                          : CABAC / 4 Ref Frames
Format settings, CABAC                   : Yes
Format settings, RefFrames               : 4 frames
Codec ID                                 : V_MPEG4/ISO/AVC
Duration                                 : 2 h 10 min
Bit rate                                 : 850 kb/s
Width                                    : 1 280 pixels
Height                                   : 668 pixels
Display aspect ratio                     : 1.916
Frame rate mode                          : Constant
Frame rate                               : 23.976 (24000/1001) FPS
Color space                              : YUV
Chroma subsampling                       : 4:2:0
Bit depth                                : 8 bits
Scan type                                : Progressive
Bits/(Pixel*Frame)                       : 0.041
Stream size                              : 794 MiB (81%)
Title                                    : Shahid (2013) Hindi 720p DvDRip x264 AAC 5.1 Esub ~Katyayan~
Writing library                          : x264 core 148 r2708 86b7198
Language                                 : Hindi
Default                                  : Yes
Forced                                   : Yes
Color range                              : Limited
Color primaries                          : BT.709
Transfer characteristics                 : BT.709
Matrix coefficients                      : BT.709

Audio
ID                                       : 2
Format                                   : AAC
Format/Info                              : Advanced Audio Codec
Format profile                           : LC
Codec ID                                 : A_AAC-2
Duration                                 : 2 h 10 min
Bit rate                                 : 192 kb/s
Channel(s)                               : 6 channels
Channel positions                        : Front: L C R, Side: L R, LFE
Sampling rate                            : 48.0 kHz
Frame rate                               : 46.875 FPS (1024 SPF)
Compression mode                         : Lossy
Stream size                              : 178 MiB (18%)
Title                                    : ~Katyayan~
Language                                 : Hindi
Default                                  : Yes
Forced                                   : Yes

Text
ID                                       : 3
Format                                   : UTF-8
Codec ID                                 : S_TEXT/UTF8
Codec ID/Info                            : UTF-8 Plain Text
Duration                                 : 1 h 52 min
Bit rate                                 : 57 b/s
Count of elements                        : 1474
Stream size                              : 47.2 KiB (0%)
Title                                    : ~Katyayan~
Language                                 : English
Default                                  : Yes
Forced                                   : Yes


 
Category:Movies > Bollywood
Lang:Hindi
Total Size:975.06 MB



:download:

|| Download This Movie Via Single Resumable Links Size: 974 MB ||

Direct-1 Google Drive | Direct-2 | Direct-3 |

Watch Online Click Here

No comments:

Post a Comment