Snow White and the Seven Dwarfs (1937) BluRay 720p x264 [Hindi DD5.1 - English DD5.1] ~ Ranvijay


Poster
6caf85ce5fc3e7b12112e9f08a7d5c60.jpg


iMDB
Imdb Picture Original Title: Snow White and the Seven Dwarfs
Title: Blanche Neige et les sept nains
Year: 1937
Runtime: 83 minutes
Votes: 152804
Rating: 7.6/10
Language: English
Country: USA
All Genres: Animation, Family, Fantasy, Musical, Romance
Plot Outline: Exiled into the dangerous forest by her wicked stepmother, a princess is rescued by seven dwarf miners who make her part of their household.
Tagline: The happiest, dopiest, grumpiest, sneeziest movie of the year.
Director: William Cottrell
David Hand
Wilfred Jackson
Larry Morey
Perce Pearce
Ben Sharpsteen
Writing By: Jacob Grimm,Wilhelm Grimm,Ted Sears,Richard Creedon,Otto Englander,Dick Rickard,Earl Hurd,Merrill De Maris,Dorothy Ann Blank,Webb Smith,
Produced By: Walt Disney,
Music: Frank Churchill Leigh Harline Paul J. Smith
Cast:
Roy Atwell as Doc
Stuart Buchanan as Huntsman
Adriana Caselotti as Snow White
Eddie Collins as Dopey / Chipmunk and Squirrel Sneezes
Pinto Colvig as Sleepy / Grumpy / Dopey Blowing Bubbles
Marion Darlington as Birds
Billy Gilbert as Sneezy
Otis Harlan as Happy
Lucille La Verne as Queen / Witch
James MacDonald as Yodeling
Trailers:
Snow White and the Seven Dwarfs: The Signature Collection
Snow White and the Seven Dwarfs: Diamond Edition



Details
Name:Jio Dhan Dhana Dhan Live - Episode 1-4 [Uncut] - 480p WEBHD - DTOne
Description:
Snow White and the Seven Dwarfs (1937) 720p BluRay x264 [Hindi DD5.1 - English DD5.1] ~ Ranvijay 

 
Thanks To Punisher For Hindi Audio

Format                                   : Matroska
Format version                           : Version 4 / Version 2
File size                                : 1.37 GiB
Duration                                 : 1 h 23 min
Overall bit rate                         : 2 349 kb/s
Movie name                               : Snow White and the Seven Dwarfs (1937)  720p BluRay x264 [Hindi DD5.1 - English DD5.1] ~ Ranvijay

Video
Duration                                 : 1 h 23 min
Bit rate                                 : 1 592 kb/s
Width                                    : 964 pixels
Height                                   : 720 pixels
Display aspect ratio                     : 4:3
Frame rate mode                          : Constant
Frame rate                               : 23.976 (24000/1001) FPS
Stream size                              : 947 MiB (67%)
Title                                    : ~Ranvijay~
Language                                 : English
Default                                  : Yes
Forced                                   : No

Audio #1
ID                                       : 2
Format                                   : AC-3
Format/Info                              : Audio Coding 3
Codec ID                                 : A_AC3
Duration                                 : 1 h 23 min
Bit rate mode                            : Constant
Bit rate                                 : 384 kb/s
Channel(s)                               : 6 channels
Channel positions                        : Front: L C R, Side: L R, LFE
Sampling rate                            : 48.0 kHz
Frame rate                               : 31.250 FPS (1536 SPF)
Bit depth                                : 16 bits
Compression mode                         : Lossy
Stream size                              : 230 MiB (16%)
Title                                    : ~Ranvijay~
Language                                 : Hindi
Service kind                             : Complete Main
Default                                  : Yes
Forced                                   : No

Audio #2
ID                                       : 3
Format                                   : AC-3
Format/Info                              : Audio Coding 3
Codec ID                                 : A_AC3
Duration                                 : 1 h 23 min
Bit rate mode                            : Constant
Bit rate                                 : 384 kb/s
Channel(s)                               : 6 channels
Channel positions                        : Front: L C R, Side: L R, LFE
Sampling rate                            : 48.0 kHz
Frame rate                               : 31.250 FPS (1536 SPF)
Bit depth                                : 16 bits
Compression mode                         : Lossy
Stream size                              : 228 MiB (16%)
Title                                    : ~Ranvijay~
Language                                 : English
Service kind                             : Complete Main
Default                                  : No
Forced                                   : No


08de0e12f6fe5fc3128e445355cff896.th.png 7ddbbb2152c996a63e19f4647676f75a.th.png 93082bc9fbe90ba66c597b11cc96fdd1.th.png 95a2cc577d8354fab0f7608fc091fc4a.th.png acf99184210b9c93c7b47c0b6ccad00d.th.png 665a94abb528924b7513da2cda725d2d.th.png 64f200cc6c7d151269850d66ff60e954.th.png e4ce403e4641ee0dcb024ee8ced141fe.th.png b0e9a623e1ffe0e4ff9586746e8075b8.th.png ed82b551e2ba170b57e5aba5540ccc63.th.png af37cff0642cc7dc6f5f4e5d9db9a036.th.png 8794848fcaa5c292d1a794b9148318a9.th.png 7430a054919aaf7b9da1f297bacf1c4d.th.png 6485d4898acd68f7ba31a6c3818d0ff9.th.png
Category:Movies > Bollywood
Lang:Hindi
Total Size:1.38 GB



|| Download This Movie Via Single Resumable Links Size: 1.37 GB ||

Direct-1 Google Drive | Direct-2 | Direct-3 |

Watch Online Click Here

Post a Comment

0 Comments