Crazy World Only 4 You

Sorry For The Inconvenience. If You are facing link dead or no google drive file access then inform us via comment

Latest Updates

Friday, 20 April 2018

Sonu Ke Titu Ki Sweety (2018) Hindi 720p WEB-HD x264 AAC ESub


Poster
Sonu-Ke-Titu-Ki-Sweety-2018-By--Sworld4ufree.Blogspot.Com.jpg


iMDB
Imdb Picture Title: Sonu Ke Titu Ki Sweety
Year: 2018
Language: Hindi
Country: India
All Genres: Comedy, Romance
Plot Outline: Titu is going to marry a perfect woman named Sweety. Titu's best-friend Sonu doubts Sweety's character and tries to break the marriage while Sweety tries to do opposite and which leads to war between Bromance and Romace.
Director: Luv Ranjan
Writing By: Rahul Mody,Luv Ranjan,
Produced By: Inderjit Chadha,Hanif Chunawala,Ankur Garg,Ashish Kathpal,Mahesh Korade,Bhushan Kumar,Krishan Kumar,Naren Kumar,Luv Ranjan,
Cast:
Kartik Aaryan as
Nushrat Bharucha as
Sunny Singh Nijjar as
Alok Nath as
Deepika Amin as
Madhumalti Kapoor as
Pawan Chopra as
Rajesh Jais as
Virendra Saxena as
Ayesha Raza as
Trailers:
SKTKS Trailer



Details
Name:Sonu Ke Titu Ki Sweety (2018) Hindi 720p WEB-HD x264 AAC ESub
Description: 

Sonu Ke Titu Ki Sweety (2018) Hindi HDRip - 720p - x264 - AAC - 1.4GB - ESub

Sonu-Ke-Titu-Ki-Sweety-2018-By--Sworld4ufree.Blogspot.Com.jpg

Format                      : Matroska
Format version              : Version 4 / Version 2
File size                   : 1.36 GiB
Duration                    : 2 h 17 min
Overall bit rate            : 1 413 kb/s

Video
ID                          : 1
Format                      : AVC
Format/Info                 : Advanced Video Codec
Format profile              : Main@L3.1
Format settings, CABAC      : Yes
Format settings, ReFrames   : 4 frames
Codec ID                    : V_MPEG4/ISO/AVC
Duration                    : 2 h 17 min
Bit rate                    : 1 288 kb/s
Width                       : 1 280 pixels
Height                      : 544 pixels
Display aspect ratio        : 2.35:1
Frame rate mode             : Variable
Frame rate                  : 29.216 FPS
Color space                 : YUV
Chroma subsampling          : 4:2:0
Bit depth                   : 8 bits
Scan type                   : Progressive
Bits/(Pixel*Frame)          : 0.063
Stream size                 : 1.23 GiB (91%)
Writing library             : x264 core 112
Language                    : English
Default                     : Yes
Forced                      : No
Color range                 : Limited
Color primaries             : BT.709
Transfer characteristics    : BT.709
Matrix coefficients         : BT.709

Audio
ID                          : 2
Format                      : AAC
Format/Info                 : Advanced Audio Codec
Format profile              : LC
Codec ID                    : A_AAC
Duration                    : 2 h 17 min
Bit rate                    : 128 kb/s
Channel(s)                  : 2 channels
Channel positions           : Front: L R
Sampling rate               : 44.1 kHz
Frame rate                  : 43.066 FPS (1024 spf)
Compression mode            : Lossy
Stream size                 : 126 MiB (9%)
Default                     : Yes
Forced                      : No

Text
ID                          : 3
Format                      : UTF-8
Codec ID                    : S_TEXT/UTF8
Codec ID/Info               : UTF-8 Plain Text
Duration                    : 2 h 14 min
Bit rate                    : 64 b/s
Count of elements           : 2194
Stream size                 : 64.0 KiB (0%)
Language                    : English
Default                     : Yes
Forced                      : No


 
 
 
 
 
 
 
Category:Movies > HDRips
Lang:Hindi
Total Size:1.36 GB



:download:

|| Download This Movie Via Single Resumable Links Size: 1.36 GB ||

Direct-1 Google Drive | Direct-2 | Direct-3 |

Watch Online Click Here

No comments:

Post a Comment