Crazy World Only 4 You

Sorry For The Inconvenience. If You are facing link dead or no google drive file access then inform us via comment

Latest Updates

Tuesday, 3 April 2018

Star Wars The Last Jedi (2017) BluRay 720p x265 HEVC Dual Audio [Hindi DD5.1 - English DD2.0] - Esub ~Ranvijay


Poster


iMDB
Imdb Picture Title: Star Wars: The Last Jedi
Year: 2017
Runtime: 150 minutes
Language: English
Country: USA
All Genres: Action, Adventure, Fantasy, Sci-Fi
Plot Outline: Having taken her first steps into a larger world in Star Wars: The Force Awakens (2015), Rey continues her epic journey with Finn, Poe, and Luke Skywalker in the next chapter of the saga.
Director: Rian Johnson
Writing By: Rian Johnson,George Lucas,
Produced By: J.J. Abrams,Ram Bergman,Boris Dmitrovic,Finni Johannsson,Tom Karnowski,Kathleen Kennedy,Jason D. McGatlin,
Music: John Williams
Cast:
Daisy Ridley as Rey
Tom Hardy as Stormtrooper
Billie Lourd as Lieutenant Connix
Domhnall Gleeson as General Hux
Mark Hamill as Luke Skywalker
Carrie Fisher as Leia
Andy Serkis as Supreme Leader Snoke
Gwendoline Christie as Captain Phasma
Adam Driver as Kylo Ren
Joseph Gordon-Levitt as
Trailers:
Official Trailer
Teaser Trailer


Details
Name:Star Wars The Last Jedi (2017) 720p BluRay x265 HEVC Dual Audio [Hindi DD5.1 - English DD2.0] - Esub ~Ranvijay
Description:
Star Wars The Last Jedi (2017) 720p BluRay x265 HEVC Dual Audio [Hindi DD5.1 - English DD2.0] - Esub ~Ranvijay

Star_Wars_The_Last_Jedi_2017_By_-_Sworld4ufree.Blogspot.Com-
 
  Thanks To Hammer Hammer For Hindi Audio

Format                                   : Matroska
Format version                           : Version 4 / Version 2
File size                                : 1.13 GiB
Duration                                 : 2 h 31 min
Overall bit rate                         : 1 067 kb/s
Movie name                               : Star Wars The Last Jedi (2017) 720p BluRay x265 HEVC Dual Audio [Hindi DD5.1 - English DD5.1] - Esub ~Ranvijay

Video
Duration                                 : 2 h 31 min
Bit rate                                 : 777 kb/s
Width                                    : 1 280 pixels
Height                                   : 536 pixels
Display aspect ratio                     : 2.40:1
Frame rate mode                          : Constant
Frame rate                               : 23.976 (24000/1001) FPS
Stream size                              : 844 MiB (73%)
Title                                    : ~Ranvijay~
Default                                  : Yes
Forced                                   : No

Audio #1
ID                                       : 1
Format                                   : AAC
Format/Info                              : Advanced Audio Codec
Format profile                           : HE-AAC / LC
Format settings                          : Explicit
Codec ID                                 : A_AAC-2
Duration                                 : 2 h 31 min
Bit rate                                 : 64.0 kb/s
Channel(s)                               : 2 channels
Channel positions                        : Front: L R
Sampling rate                            : 48.0 kHz / 24.0 kHz
Frame rate                               : 23.438 FPS (1024 SPF)
Compression mode                         : Lossy
Delay relative to video                  : 31 ms
Stream size                              : 69.5 MiB (6%)
Title                                    : ~Ranvijay~
Language                                 : English
Default                                  : Yes
Forced                                   : No

Audio #2
ID                                       : 4
Format                                   : AC-3
Format/Info                              : Audio Coding 3
Codec ID                                 : A_AC3
Duration                                 : 2 h 31 min
Bit rate mode                            : Constant
Bit rate                                 : 224 kb/s
Channel(s)                               : 6 channels
Channel positions                        : Front: L C R, Side: L R, LFE
Sampling rate                            : 48.0 kHz
Frame rate                               : 31.250 FPS (1536 SPF)
Bit depth                                : 16 bits
Compression mode                         : Lossy
Stream size                              : 243 MiB (21%)
Title                                    : ~Ranvijay~
Service kind                             : Complete Main
Default                                  : No
Forced                                   : No

Text
ID                                       : 3
Format                                   : UTF-8
Codec ID                                 : S_TEXT/UTF8
Codec ID/Info                            : UTF-8 Plain Text
Duration                                 : 2 h 20 min
Bit rate                                 : 40 b/s
Count of elements                        : 1548
Stream size                              : 41.5 KiB (0%)
Title                                    : ~Ranvijay~
Language                                 : English
Default                                  : Yes
Forced                                   : No

Menu
00:00:00.000                             : :00:00:00.000
00:00:18.644                             : :00:00:18.644
00:01:45.856                             : :00:01:45.731
00:03:11.817                             : :00:03:11.817
00:07:43.296                             : :00:07:43.296
00:12:48.434                             : :00:12:48.434
00:13:44.574                             : :00:13:44.574
00:16:29.280                             : :00:16:29.280
00:19:59.407                             : :00:19:59.281
00:22:51.370                             : :00:22:51.370
00:26:04.980                             : :00:26:04.980
00:27:22.850                             : :00:27:22.850
00:31:24.758                             : :00:31:24.758
00:32:54.681                             : :00:32:54.681
00:35:27.751                             : :00:35:27.667
00:38:11.498                             : :00:38:11.498
00:41:53.428                             : :00:41:53.428
00:44:29.542                             : :00:44:29.542
00:46:51.475                             : :00:46:51.475
00:51:41.932                             : :00:51:41.932
00:53:50.144                             : :00:53:50.060
00:55:41.505                             : :00:55:41.505
00:57:39.581                             : :00:57:39.581
00:59:16.636                             : :00:59:16.636
01:02:05.889                             : :01:02:05.847
01:03:07.742                             : :01:03:07.701
01:05:41.813                             : :01:05:41.729
01:07:03.478                             : :01:07:03.478
01:10:25.805                             : :01:10:25.721
01:13:30.323                             : :01:13:30.323
01:17:43.450                             : :01:17:43.450
01:20:53.057                             : :01:20:53.057
01:24:17.970                             : :01:24:17.970
01:26:23.220                             : :01:26:23.220
01:27:59.524                             : :01:27:59.524
01:30:49.361                             : :01:30:49.361
01:32:54.569                             : :01:32:54.569
01:35:53.706                             : :01:35:53.706
01:37:10.616                             : :01:37:10.616
01:39:12.864                             : :01:39:12.864
01:42:07.663                             : :01:42:07.663
01:45:03.714                             : :01:45:03.714
01:49:35.694                             : :01:49:35.694
01:52:20.609                             : :01:52:20.609
01:56:04.749                             : :01:56:04.749
01:58:52.083                             : :01:58:52.083
02:03:11.134                             : :02:03:11.134
02:06:39.759                             : :02:06:39.759
02:11:43.604                             : :02:11:43.604
02:15:12.104                             : :02:15:12.104
02:20:16.700                             : :02:20:16.700
02:23:39.778                             : :02:23:39.694

2800ba36407c934c5048081db7f4b575.th.png b845f612cc84592ab0c855d60ba1c03c.th.png b11d106ff80b8985765f72f4ca31f12e.th.png 14d3ff3f5ee1c58d128434487861fc02.th.png 3e558dc3a7a3cdabd72c67209743ba04.th.png 4c276e18af97d33c9ff81db196f36cfd.th.png 369f0ea84b7c5f9b50caaf435f81b55c.th.png 0e6508ba5c63d1e5d00d4de25c719f2d.th.png 36e4359a808065bbdcb33beddd9ad0e3.th.png 4f1ac056c3f41f731384b9d2f0347a41.th.png

DD5.1 640kbps Audio Only Click Here

Category:Movies > Hollywood Dub
Lang:Hindi
Total Size:1.13 GB



:download:

|| Download This Movie Via Single Resumable Links Size: 1.13 GB ||

Direct-1 Google Drive | Direct-2 | Direct-3 |

Watch Online Click Here

2 comments: