The Black Prince (2017) 720p WEB-HD x264 AC3 DD5.1 ~ Ranvijay ~


Poster


iMDB
Imdb Picture Title: The Black Prince
Year: 2017
Runtime: 118 minutes
Votes: 685
Rating: 7.6/10
Language: English, Panjabi
Country: UK, India, USA
All Genres: Drama, History
Plot Outline: 'The Black Prince' is a story of Queen Victoria and the Last King of Punjab, Maharajah Duleep Singh. His character as it evolves, torn between two cultures and facing constant dilemmas as a result. His relationship with Queen Victoria will be the most impactful relationship in the film, the Queen representing the English culture he was drawn into. The Black Prince begins a lifelong struggle to ...
Director: Kavi Raz
Writing By: Kavi Raz,
Produced By: Ashwani Chopra,Vikrant Chopra,Roger Christian,Travis Cloyd,Lina Dhingra,Sherry Hundal,Sherry Hundal,Jai Khanna,Kavi Raz,Jasjeet Singh,
Music: George Kallis
Cast:
Jason Flemyng as Dr. Login
Amanda Root as Queen Victoria
Shabana Azmi as Rani Jindan
David Essex as Colonel Hurbon
Joe Egan as Irish Rebel
Keith Duffy as Casey
Alexa Morden as Young Victoria
Leanne Joyce as Ada Wetherill
Kavi Raz as Beggar
Robert Deaton as Soldier

Details
Name:The Black Prince (2017) 720p WEB-HD x264 AC3 DD5.1 ~ Ranvijay
Description:
The Black Prince (2017) 720p WEB-HD x264 AC3 DD5.1 ~ Ranvijay ~

 

Source Lottery @ DTONE 
 
Format                                   : Matroska
Format version                           : Version 4 / Version 2
File size                                : 1.03 GiB
Duration                                 : 2 h 0 min
Overall bit rate                         : 1 223 kb/s
Movie name                               : The Black Prince (2017) 720p x264 AC3 DD5.1 ~ Ranvijay

Video
Duration                                 : 2 h 0 min
Bit rate                                 : 1 000 kb/s
Width                                    : 1 280 pixels
Height                                   : 530 pixels
Display aspect ratio                     : 2.40:1
Original display aspect ratio            : 2.40:1
Frame rate mode                          : Constant
Frame rate                               : 24.000 FPS
Stream size                              : 862 MiB (82%)
Title                                    : ~Ranvijay~
Default                                  : Yes
Forced                                   : No

Audio
ID                                       : 2
Format                                   : AC-3
Format/Info                              : Audio Coding 3
Codec ID                                 : A_AC3
Duration                                 : 2 h 0 min
Bit rate mode                            : Constant
Bit rate                                 : 224 kb/s
Channel(s)                               : 6 channels
Channel positions                        : Front: L C R, Side: L R, LFE
Sampling rate                            : 48.0 kHz
Frame rate                               : 31.250 FPS (1536 SPF)
Bit depth                                : 16 bits
Compression mode                         : Lossy
Delay relative to video                  : -5 ms
Stream size                              : 194 MiB (18%)
Title                                    : ~Ranvijay~
Language                                 : Hindi
Service kind                             : Complete Main
Default                                  : Yes
Forced                                   : No


           
Category:Movies > Bollywood
Lang:Hindi
Total Size:1.04 GB



:download:

|| Download This Movie Via Single Resumable Links Size: 1.03 GB ||

Direct-1 Google Drive | Direct-2 | Direct-3 |

Watch Online Click Here

Post a Comment

0 Comments