Crazy World Only 4 You

Sorry For The Inconvenience. If You are facing link dead or no google drive file access then inform us via comment

Latest Updates

Friday, 20 April 2018

The Boss (2016) BluRay 576p x264 Dual Audio [Eng-Hindi] AC3 DD 5.1 [Team SSX]


Poster


iMDB
Imdb Picture Title: The Boss
Year: 2016
Runtime: 99 minutes
Votes: 33922
Rating: 5.4/10
Language: English
Country: USA
All Genres: Comedy
Plot Outline: A titan of industry is sent to prison after she's caught insider trading. When she emerges ready to rebrand herself as America's latest sweetheart, not everyone she screwed over is so quick to forgive and forget.
Tagline: Watch your assets
Director: Ben Falcone
Writing By: Melissa McCarthy,Ben Falcone,Steve Mallory,
Produced By: Elizabeth Cohen,Rob Cowan,Ben Falcone,Will Ferrell,Chris Henchy,Melissa McCarthy,Adam McKay,Kevin J. Messick,
Music: Christopher Lennertz
Cast:
Melissa McCarthy as Michelle Darnell
Kristen Bell as Claire
Peter Dinklage as Renault
Ella Anderson as Rachel
Tyler Labine as Mike Beals
Kathy Bates as Ida Marquette
Cecily Strong as Dana Dandridge
Mary Sohn as Jan Keller
Kristen Schaal as Scout Leader Sandy
Eva Peterson as Chrystal
Trailers:
Red Band Trailer
Trailer #1



Details
Name:The Boss (2016) BluRay x264 Eng-Hindi AC3 DD 5.1 [Team SSX] .mkv
Description:
The Boss (2016) BluRay x264 Eng-Hindi AC3 DD 5.1 [Team SSX]

 

General

Format                                   : Matroska
Format version                           : Version 4 / Version 2
File size                                : 1.63 GiB
Duration                                 : 1 h 38 min
Overall bit rate                         : 2 356 kb/s


Video
ID                                       : 2
Format                                   : MPEG-4 Visual
Format profile                           : Advanced Simple@L5
Format settings                          : BVOP1
Format settings, BVOP                    : 1
Format settings, QPel                    : No
Format settings, GMC                     : No warppoints
Format settings, Matrix                  : Default (MPEG)
Codec ID                                 : V_MS/VFW/FOURCC / XVID
Codec ID/Hint                            : XviD
Duration                                 : 1 h 38 min
Bit rate                                 : 1 587 kb/s
Width                                    : 656 pixels
Height                                   : 352 pixels
Display aspect ratio                     : 1.85:1
Frame rate mode                          : Constant
Frame rate                               : 23.976 (23976/1000) FPS
Original frame rate                      : 23.976 (24000/1001) FPS
Color space                              : YUV
Chroma subsampling                       : 4:2:0
Bit depth                                : 8 bits
Scan type                                : Progressive
Compression mode                         : Lossy
Bits/(Pixel*Frame)                       : 0.287
Stream size                              : 1.10 GiB (67%)
Writing library                          : XviD 67
Default                                  : Yes
Forced                                   : No

Audio #1
ID                                       : 1
Format                                   : AC-3
Format/Info                              : Audio Coding 3
Codec ID                                 : A_AC3
Duration                                 : 1 h 38 min
Bit rate mode                            : Constant
Bit rate                                 : 384 kb/s
Channel(s)                               : 6 channels
Channel positions                        : Front: L C R, Side: L R, LFE
Sampling rate                            : 48.0 kHz
Frame rate                               : 31.250 FPS (1536 SPF)
Bit depth                                : 16 bits
Compression mode                         : Lossy
Delay relative to video                  : 225 ms
Stream size                              : 271 MiB (16%)
Language                                 : Hindi
Service kind                             : Complete Main
Default                                  : Yes
Forced                                   : No

Audio #2
ID                                       : 3
Format                                   : AC-3
Format/Info                              : Audio Coding 3
Codec ID                                 : A_AC3
Duration                                 : 1 h 38 min
Bit rate mode                            : Constant
Bit rate                                 : 384 kb/s
Channel(s)                               : 6 channels
Channel positions                        : Front: L C R, Side: L R, LFE
Sampling rate                            : 48.0 kHz
Frame rate                               : 31.250 FPS (1536 SPF)
Bit depth                                : 16 bits
Compression mode                         : Lossy
Stream size                              : 271 MiB (16%)
Language                                 : Italian
Service kind                             : Complete Main
Default                                  : No
Forced                                   : No

           
Category:Movies > Hollywood Dub
Lang:Hindi
Total Size:1.63 GB



:download:

|| Download This Movie Via Single Resumable Links Size: 1.63 GB ||

Direct-1 Google Drive | Direct-2 | Direct-3 |

Watch Online Click Here

No comments:

Post a Comment