The Greatest Showman (2017) BluRay 720p x264 Dual Audio [Hindi DD 5.1 - Eng] x264 AAC MSub ~Katyayan~


Poster


iMDB
Imdb Picture Title: The Greatest Showman
Year: 2017
Runtime: 105 minutes
Votes: 72384
Rating: 8.0/10
Language: English
Country: USA
All Genres: Biography, Drama, Musical, Romance
Plot Outline: Celebrates the birth of show business, and tells of a visionary who rose from nothing to create a spectacle that became a worldwide sensation.
Director: Michael Gracey
Writing By: Jenny Bicks,Bill Condon,Jenny Bicks,
Produced By: Peter Chernin,Tonia Davis,Deb Dyer,Peter Kohn,Donald J. Lee Jr.,James Mangold,Laurence Mark,Jenno Topping,
Music: John Debney Joseph Trapanese
Cast:
Hugh Jackman as P.T. Barnum
Michelle Williams as Charity Barnum
Zac Efron as Phillip Carlyle
Zendaya as Anne Wheeler
Rebecca Ferguson as Jenny Lind
Austyn Johnson as Caroline Barnum
Cameron Seely as Helen Barnum
Keala Settle as Lettie Lutz
Sam Humphrey as Tom Thumb
Yahya Abdul-Mateen II as W.D. Wheeler
Trailers:
Official Trailer #2
Official Trailer



Details
Name:The Greatest Showman (2017) BluRay 720p x264 Dual Audio [Hindi DD 5.1 - Eng] x264 AAC MSub ~Kat...
Description:
The Greatest Showman (2017) BluRay 720p x264 Dual Audio [Hindi DD 5.1 - Eng] x264 AAC MSub ~Katyayan~

 

Thanks To Hammer For Hindi Audio

Format                                   : Matroska
Format version                           : Version 4 / Version 2
File size                                : 957 MiB
Duration                                 : 1 h 44 min
Overall bit rate                         : 1 276 kb/s
Movie name                               : The Greatest Showman (2017) BluRay 720p x264 Dual Audio [Hindi DD 5.1 - Eng] x264 AAC MSub ~Katyayan~
Encoded date                             : UTC 2018-04-24 05:39:04
Writing application                      : mkvmerge v19.0.0 ('Brave Captain') 32-bit
Writing library                          : libebml v1.3.5 + libmatroska v1.4.8

Video
ID                                       : 1
Format                                   : AVC
Format/Info                              : Advanced Video Codec
Format profile                           : High@L4.1
Format settings                          : CABAC / 12 Ref Frames
Format settings, CABAC                   : Yes
Format settings, RefFrames               : 12 frames
Codec ID                                 : V_MPEG4/ISO/AVC
Duration                                 : 1 h 44 min
Bit rate                                 : 1 020 kb/s
Width                                    : 1 280 pixels
Height                                   : 532 pixels
Display aspect ratio                     : 2.40:1
Frame rate mode                          : Constant
Frame rate                               : 23.976 (24000/1001) FPS
Color space                              : YUV
Chroma subsampling                       : 4:2:0
Bit depth                                : 8 bits
Scan type                                : Progressive
Bits/(Pixel*Frame)                       : 0.062
Stream size                              : 764 MiB (80%)
Title                                    : The Greatest Showman (2017) BluRay 720p x264 Dual Audio [Hindi DD 5.1 - Eng] x264 AAC MSub ~Katyayan~
Writing library                          : x264 core 148 r2795 aaa9aa8
Language                                 : English
Default                                  : Yes
Forced                                   : Yes
Color range                              : Limited
Color primaries                          : BT.709
Transfer characteristics                 : BT.709
Matrix coefficients                      : BT.709

Audio #1
ID                                       : 2
Format                                   : AAC
Format/Info                              : Advanced Audio Codec
Format profile                           : HE-AAC / LC
Format settings                          : Explicit
Codec ID                                 : A_AAC-2
Duration                                 : 1 h 44 min
Bit rate                                 : 64.0 kb/s
Channel(s)                               : 2 channels
Channel positions                        : Front: L R
Sampling rate                            : 48.0 kHz / 24.0 kHz
Frame rate                               : 23.438 FPS (1024 SPF)
Compression mode                         : Lossy
Delay relative to video                  : 31 ms
Stream size                              : 48.0 MiB (5%)
Title                                    : ~Katyayan~
Language                                 : English
Default                                  : No
Forced                                   : No

Audio #2
ID                                       : 7
Format                                   : AAC
Format/Info                              : Advanced Audio Codec
Format profile                           : LC
Codec ID                                 : A_AAC-2
Duration                                 : 1 h 44 min
Bit rate                                 : 192 kb/s
Channel(s)                               : 6 channels
Channel positions                        : Front: L C R, Side: L R, LFE
Sampling rate                            : 48.0 kHz
Frame rate                               : 46.875 FPS (1024 SPF)
Compression mode                         : Lossy
Stream size                              : 142 MiB (15%)
Title                                    : ~Katyayan~
Language                                 : Hindi
Default                                  : Yes
Forced                                   : Yes

Text #1
ID                                       : 3
Format                                   : UTF-8
Codec ID                                 : S_TEXT/UTF8
Codec ID/Info                            : UTF-8 Plain Text
Duration                                 : 1 h 36 min
Bit rate                                 : 91 b/s
Count of elements                        : 1310
Stream size                              : 64.3 KiB (0%)
Title                                    : ~Katyayan~
Language                                 : Arabic
Default                                  : No
Forced                                   : No

Text #2
ID                                       : 4
Format                                   : UTF-8
Codec ID                                 : S_TEXT/UTF8
Codec ID/Info                            : UTF-8 Plain Text
Duration                                 : 1 h 36 min
Bit rate                                 : 69 b/s
Count of elements                        : 1242
Stream size                              : 48.9 KiB (0%)
Title                                    : ~Katyayan~
Language                                 : Dutch
Default                                  : No
Forced                                   : No

Text #3
ID                                       : 5
Format                                   : UTF-8
Codec ID                                 : S_TEXT/UTF8
Codec ID/Info                            : UTF-8 Plain Text
Duration                                 : 1 h 43 min
Bit rate                                 : 75 b/s
Count of elements                        : 1871
Stream size                              : 57.5 KiB (0%)
Title                                    : ~Katyayan~
Language                                 : English
Default                                  : Yes
Forced                                   : Yes

Text #4
ID                                       : 6
Format                                   : UTF-8
Codec ID                                 : S_TEXT/UTF8
Codec ID/Info                            : UTF-8 Plain Text
Duration                                 : 1 h 36 min
Bit rate                                 : 72 b/s
Count of elements                        : 1263
Stream size                              : 51.6 KiB (0%)
Title                                    : ~Katyayan~
Language                                 : Turkish
Default                                  : No
Forced                                   : No

 
Category:Movies > Hollywood Dub
Lang:Hindi
Total Size:957.09 MB




:download:

|| Download This Movie Via Single Resumable Links Size: 957 MB ||

Direct-1 Google Drive | Direct-2 | Direct-3 |

Watch Online Click Here

Post a Comment

0 Comments