Crazy World Only 4 You

Sorry For The Inconvenience. If You are facing link dead or no google drive file access then inform us via comment

Latest Updates

Tuesday, 17 April 2018

The Ninth Gate (1999) BluRay 720p x264 Dual Audio [Hindi - English] AAC Esub ~Katyayan~


Poster


iMDB
Imdb Picture Original Title: The Ninth Gate
Title: La neuvième porte
Year: 1999
Runtime: 133 minutes
Votes: 147920
Rating: 6.7/10
Language: English, French, Latin, Portuguese, Spanish
Country: Spain, France, USA
All Genres: Mystery, Thriller
Plot Outline: A rare book dealer, while seeking out the last two copies of a demon text, gets drawn into a conspiracy with supernatural overtones.
Tagline: The only thing more terrifying than searching for the Devil... is finding him.
Director: Roman Polanski
Writing By: Arturo Pérez-Reverte,John Brownjohn,Enrique Urbizu,Roman Polanski,
Produced By: Mark Allan,Antonio Cardenal,Mishka Cheyko,Wolfgang Glattes,Adam Kempton,Iñaki Núñez,Roman Polanski,Alain Vannier,Suzanne Wiesenfeld,
Music: Wojciech Kilar
Cast:
Johnny Depp as Dean Corso
Frank Langella as Boris Balkan
Lena Olin as Liana Telfer
Emmanuelle Seigner as The Girl
Barbara Jefford as Baroness Kessler
Jack Taylor as Victor Fargas
José López Rodero as Pablo & Pedro Ceniza / 1st & 2nd Workmen
Tony Amoni as Liana's Bodyguard
James Russo as Bernie
Willy Holt as Andrew Telfer
Trailers:
The Ninth Gate


Details
Name:The Ninth Gate (1999) BluRay 720p x264 Dual Audio [Hindi - English] AAC Esub ~Katyayan~
Description:
The Ninth Gate (1999) BluRay 720p x264 Dual Audio [Hindi - English] AAC Esub ~Katyayan~

 

Thanks To Dredd Bro For Hindi Audio

Format                                   : Matroska
Format version                           : Version 4 / Version 2
File size                                : 829 MiB
Duration                                 : 2 h 13 min
Overall bit rate                         : 870 kb/s

Video
ID                                       : 1
Format                                   : AVC
Format/Info                              : Advanced Video Codec
Format profile                           : Main@L5.1
Format settings                          : CABAC / 4 Ref Frames
Format settings, CABAC                   : Yes
Format settings, RefFrames               : 4 frames
Codec ID                                 : V_MPEG4/ISO/AVC
Duration                                 : 2 h 13 min
Bit rate                                 : 678 kb/s
Width                                    : 1 280 pixels
Height                                   : 536 pixels
Display aspect ratio                     : 2.35:1
Frame rate mode                          : Constant
Frame rate                               : 23.976 (24000/1001) FPS
Color space                              : YUV
Chroma subsampling                       : 4:2:0
Bit depth                                : 8 bits
Scan type                                : Progressive
Bits/(Pixel*Frame)                       : 0.041
Stream size                              : 646 MiB (78%)
Writing library                          : x264 core 148 r2708 86b7198
Default                                  : Yes
Forced                                   : No
Color range                              : Limited
Color primaries                          : BT.709
Transfer characteristics                 : BT.709
Matrix coefficients                      : BT.709

Audio #1
ID                                       : 2
Format                                   : AAC
Format/Info                              : Advanced Audio Codec
Format profile                           : HE-AAC / LC
Format settings                          : Explicit
Codec ID                                 : A_AAC-2
Duration                                 : 2 h 13 min
Bit rate                                 : 128 kb/s
Channel(s)                               : 2 channels
Channel positions                        : Front: L R
Sampling rate                            : 48.0 kHz / 24.0 kHz
Frame rate                               : 23.438 FPS (1024 SPF)
Compression mode                         : Lossy
Delay relative to video                  : 2 s 800 ms
Stream size                              : 122 MiB (15%)
Title                                    : ~Katyayan~
Language                                 : Hindi
Default                                  : Yes
Forced                                   : Yes

Audio #2
ID                                       : 3
Format                                   : AAC
Format/Info                              : Advanced Audio Codec
Format profile                           : LC
Codec ID                                 : A_AAC-2
Duration                                 : 2 h 13 min
Bit rate                                 : 61.5 kb/s
Channel(s)                               : 2 channels
Channel positions                        : Front: L R
Sampling rate                            : 48.0 kHz
Frame rate                               : 46.875 FPS (1024 SPF)
Compression mode                         : Lossy
Stream size                              : 58.6 MiB (7%)
Title                                    : ~Katyayan~
Language                                 : English
Default                                  : No
Forced                                   : No

Text
ID                                       : 4
Format                                   : UTF-8
Codec ID                                 : S_TEXT/UTF8
Codec ID/Info                            : UTF-8 Plain Text
Duration                                 : 2 h 7 min
Bit rate                                 : 41 b/s
Count of elements                        : 1040
Stream size                              : 39.2 KiB (0%)
Title                                    : ~Katyayan~
Language                                 : English
Default                                  : Yes
Forced                                   : Yes

 
Category:Movies > Hollywood Dub
Lang:Hindi
Total Size:829.68 MB



:download:

|| Download This Movie Via Single Resumable Links Size: 829 MB ||

Direct-1 Google Drive | Direct-2 | Direct-3 |

Watch Online Click Here

No comments:

Post a Comment