Crazy World Only 4 You

Sorry For The Inconvenience. If You are facing link dead or no google drive file access then inform us via comment

Latest Updates

Friday, 6 April 2018

The Shape of Water (2017) BluRay 720p x265 Dual Audio [Hindi DD 5.1 - Eng] AAC Msub ~Katyayan~


Poster


iMDB
Imdb Picture Title: The Shape of Water
Year: 2017
Runtime: 123 minutes
Votes: 13181
Rating: 8.2/10
Language: English, American Sign Language, Russian
Country: USA, Canada
All Genres: Adventure, Drama, Fantasy, Horror, Romance, Thriller
Plot Outline: At a top secret research facility in the 1960s, a lonely janitor forms a unique relationship with an amphibious creature that is being held in captivity.
Tagline: Based on an idea by Daniel Kraus And Guillermo del Toro
Director: Guillermo del Toro
Writing By: Guillermo del Toro,Vanessa Taylor,Guillermo del Toro,
Produced By: J. Miles Dale,Guillermo del Toro,David Greenbaum,Matthew Greenfield,Daniel Kraus,Liz Sayre,
Music: Alexandre Desplat
Cast:
Sally Hawkins as Elisa Esposito
Michael Shannon as Richard Strickland
Richard Jenkins as Giles
Octavia Spencer as Zelda Fuller
Michael Stuhlbarg as Dr. Robert Hoffstetler
Doug Jones as Amphibian Man
David Hewlett as Fleming
Nick Searcy as General Hoyt
Stewart Arnott as Bernard
Nigel Bennett as Mihalkov
Trailers:
New International Trailer
Red Band Trailer
Trailer
Now Playing Everywhere


Details
Name:The Shape of Water (2017) BluRay 720p x265 Dual Audio [Hindi DD 5.1 - Eng] AAC Msub ~Katyayan~
Description:
The Shape of Water (2017) BluRay 720p x265 Dual Audio [Hindi DD 5.1 - Eng] AAC  Msub ~Katyayan~

 

Thanks To Mr. Rajput For Hindi Audio

General
Format                                   : Matroska
Format version                           : Version 4 / Version 2
File size                                : 998 MiB
Duration                                 : 2 h 3 min
Overall bit rate                         : 1 132 kb/s
Movie name                               : The Shape of Water (2017) BluRay 720p x265 Dual Audio [Hindi DD 5.1 - Eng] AAC  Msub ~Katyayan~
Encoded date                             : UTC 2018-04-06 06:46:49
Writing application                      : mkvmerge v19.0.0 ('Brave Captain') 32-bit
Writing library                          : libebml v1.3.5 + libmatroska v1.4.8
Cover                                    : Yes
Attachments                              : The Shape of Water (2017) Cover ~Katyayan~.jpg

Video
ID                                       : 1
Format                                   : HEVC
Format/Info                              : High Efficiency Video Coding
Format profile                           : Main@L3.1@Main
Codec ID                                 : V_MPEGH/ISO/HEVC
Duration                                 : 2 h 3 min
Bit rate                                 : 892 kb/s
Width                                    : 1 280 pixels
Height                                   : 688 pixels
Display aspect ratio                     : 1.85:1
Frame rate mode                          : Constant
Frame rate                               : 23.976 (24000/1001) FPS
Color space                              : YUV
Chroma subsampling                       : 4:2:0
Bit depth                                : 8 bits
Bits/(Pixel*Frame)                       : 0.042
Stream size                              : 786 MiB (79%)
Title                                    : The Shape of Water (2017) BluRay 720p x265 Dual Audio [Hindi DD 5.1 - Eng] AAC  Msub ~Katyayan~
Language                                 : English
Default                                  : Yes
Forced                                   : Yes

Audio #1
ID                                       : 2
Format                                   : AAC
Format/Info                              : Advanced Audio Codec
Format profile                           : HE-AAC / LC
Format settings                          : Explicit
Codec ID                                 : A_AAC-2
Duration                                 : 2 h 3 min
Bit rate                                 : 69.1 kb/s
Channel(s)                               : 2 channels
Channel positions                        : Front: L R
Sampling rate                            : 48.0 kHz / 24.0 kHz
Frame rate                               : 23.438 FPS (1024 SPF)
Compression mode                         : Lossy
Delay relative to video                  : 23 ms
Stream size                              : 61.0 MiB (6%)
Title                                    : ~Katyayan~
Language                                 : English
Default                                  : No
Forced                                   : No

Audio #2
ID                                       : 3
Format                                   : AAC
Format/Info                              : Advanced Audio Codec
Format profile                           : LC
Codec ID                                 : A_AAC-2
Duration                                 : 2 h 3 min
Bit rate                                 : 160 kb/s
Channel(s)                               : 6 channels
Channel positions                        : Front: L C R, Side: L R, LFE
Sampling rate                            : 48.0 kHz
Frame rate                               : 46.875 FPS (1024 SPF)
Compression mode                         : Lossy
Stream size                              : 141 MiB (14%)
Title                                    : ~Katyayan~
Language                                 : Hindi
Default                                  : Yes
Forced                                   : Yes

Text #1
ID                                       : 4
Format                                   : UTF-8
Codec ID                                 : S_TEXT/UTF8
Codec ID/Info                            : UTF-8 Plain Text
Duration                                 : 2 h 3 min
Bit rate                                 : 60 b/s
Count of elements                        : 1977
Stream size                              : 54.2 KiB (0%)
Title                                    : ~Katyayan~
Language                                 : English
Default                                  : Yes
Forced                                   : Yes

Text #2
ID                                       : 5
Format                                   : PGS
Muxing mode                              : zlib
Codec ID                                 : S_HDMV/PGS
Codec ID/Info                            : Picture based subtitle format used on BDs/HD-DVDs
Duration                                 : 2 h 1 min
Bit rate                                 : 23.2 kb/s
Count of elements                        : 2825
Stream size                              : 20.1 MiB (2%)
Title                                    : ~Katyayan~
Language                                 : Hindi
Default                                  : No
Forced                                   : No


 
Category:Movies > Hollywood Dub
Lang:Hindi
Total Size:998.46 MB



:download:

|| Download This Movie Via Single Resumable Links Size: 998 MB ||

Direct-1 Google Drive | Direct-2 | Direct-3 |

Watch Online Click Here

No comments:

Post a Comment