Crazy World Only 4 You

Sorry For The Inconvenience. If You are facing link dead or no google drive file access then inform us via comment

Latest Updates

Sunday, 29 April 2018

Who Framed Roger Rabbit (1988) BluRay 1080p Dual Audio [Eng - Hindi] x264 AAC Esubs


Poster


iMDB
Imdb Picture Title: Who Framed Roger Rabbit
Year: 1988
Runtime: 104 minutes
Votes: 158709
Rating: 7.7/10
Language: English
Country: USA
All Genres: Animation, Adventure, Comedy, Crime, Family, Fantasy, Mystery
Plot Outline: A toon-hating detective is a cartoon rabbit's only hope to prove his innocence when he is accused of murder.
Tagline: It's the story of a man, a woman, and a rabbit in a triangle of trouble.
Director: Robert Zemeckis
Writing By: Gary K. Wolf,Jeffrey Price,Peter S. Seaman,
Produced By: Don Hahn,Kathleen Kennedy,Frank Marshall,Steven Spielberg,Steve Starkey,Robert Watts,Alan Dewhurst,
Music: Alan Silvestri
Cast:
Bob Hoskins as Eddie Valiant
Christopher Lloyd as Judge Doom
Joanna Cassidy as Dolores
Charles Fleischer as Roger Rabbit / Benny The Cab / Greasy / Psycho
Stubby Kaye as Marvin Acme
Alan Tilvern as R.K. Maroon
Richard LeParmentier as Lt. Santino
Lou Hirsch as Baby Herman
Betsy Brantley as Jessica's Performance Model
Joel Silver as Raoul
Trailers:
Who Framed Roger Rabbit: 25th Anniversary Edition
Who Framed Roger Rabbit



Details
Name:Avengers Infinity War (2018) New Proper HDTS - 720p - [Telugu + Tamil + Hindi + Eng]
Description:
Who Framed Roger Rabbit 1988 1080p BluRayH264 AAC [ Dual Audio ] [ Eng - Hindi ] Esubs
3934968cca07ba985a6f2632edaa6edd.jpg

 

IMDB : https://www.imdb.com/title/tt0096438/

General


Format                      : Matroska
Format version              : Version 4 / Version 2
File size                   : 2.07 GiB
Duration                    : 1 h 43 min
Overall bit rate            : 2 853 kb/s
Encoded date                : UTC 2018-04-29 11:24:47
Writing application         : mkvmerge v20.0.0 ('I Am The Sun') 64-bit
Writing library             : libebml v1.3.5 + libmatroska v1.4.8

Video
ID                          : 1
Format                      : AVC
Format/Info                 : Advanced Video Codec
Format profile              : High@L4.1
Format settings             : CABAC / 4 Ref Frames
Format settings, CABAC      : Yes
Format settings, ReFrames   : 4 frames
Codec ID                    : V_MPEG4/ISO/AVC
Duration                    : 1 h 43 min
Bit rate                    : 2 500 kb/s
Width                       : 1 920 pixels
Height                      : 1 040 pixels
Display aspect ratio        : 1.85:1
Frame rate mode             : Constant
Frame rate                  : 23.976 (23976/1000) FPS
Color space                 : YUV
Chroma subsampling          : 4:2:0
Bit depth                   : 8 bits
Scan type                   : Progressive
Bits/(Pixel*Frame)          : 0.052
Stream size                 : 1.81 GiB (88%)
Title                       : English
Writing library             : x264 core 152 r2851M ba24899
Language                    : English
Default                     : Yes
Forced                      : No

Audio #1
ID                          : 2
Format                      : AAC
Format/Info                 : Advanced Audio Codec
Format profile              : LC
Codec ID                    : A_AAC-2
Duration                    : 1 h 43 min
Bit rate                    : 224 kb/s
Channel(s)                  : 6 channels
Channel positions           : Front: L C R, Side: L R, LFE
Sampling rate               : 48.0 kHz
Frame rate                  : 46.875 FPS (1024 SPF)
Compression mode            : Lossy
Delay relative to video     : -43 ms
Stream size                 : 166 MiB (8%)
Title                       : English
Language                    : English
Default                     : Yes
Forced                      : No

Audio #2
ID                          : 3
Format                      : E-AC-3
Format/Info                 : Enhanced Audio Coding 3
Codec ID                    : A_EAC3
Duration                    : 1 h 43 min
Bit rate mode               : Constant
Bit rate                    : 128 kb/s
Channel(s)                  : 2 channels
Channel positions           : Front: L R
Sampling rate               : 48.0 kHz
Frame rate                  : 187.500 FPS (256 SPF)
Compression mode            : Lossy
Delay relative to video     : 1 s 282 ms
Stream size                 : 95.0 MiB (4%)
Title                       : Hindi
Language                    : Hindi
Service kind                : Complete Main
Default                     : No
Forced                      : No

Text #1
ID                          : 4
Format                      : UTF-8
Codec ID                    : S_TEXT/UTF8
Codec ID/Info               : UTF-8 Plain Text
Duration                    : 1 h 41 min
Bit rate                    : 65 b/s
Count of elements           : 1476
Stream size                 : 48.7 KiB (0%)
Title                       : English Sub 1
Language                    : English
Default                     : Yes
Forced                      : No

Text #2
ID                          : 5
Format                      : UTF-8
Codec ID                    : S_TEXT/UTF8
Codec ID/Info               : UTF-8 Plain Text
Duration                    : 1 h 43 min
Bit rate                    : 132 b/s
Count of elements           : 2284
Stream size                 : 101 KiB (0%)
Title                       : English Sub 2
Language                    : English
Default                     : No
Forced                      : No

All Credit Goes To ~Hammer~ for Hindi Audio




Category:Movies > Hollywood Dub
Lang:Hindi
Total Size:2.07 GB



|| Download This Movie Via Single Resumable Links Size: 2.07 GB ||

Direct-1 Google Drive | Direct-2 | Direct-3 |

Watch Online Click Here

No comments:

Post a Comment