Crazy World Only 4 You

Sorry For The Inconvenience. If You are facing link dead or no google drive file access then inform us via comment

Latest Updates

Saturday, 21 April 2018

Why Him (2016) BluRay 720p x264 [Dual-Audio] [English DD 5.1 + Hindi DD 5.1] - Mafiaking - M2Tv


Poster


iMDB
Imdb Picture Title: Why Him?
Year: 2016
Runtime: 111 minutes
Votes: 34751
Rating: 6.3/10
Language: English, Khmer
Country: USA, Cambodia
All Genres: Comedy
Plot Outline: A holiday gathering threatens to go off the rails when Ned Fleming realizes that his daughter's Silicon Valley millionaire boyfriend is about to pop the question.
Tagline: Of all the guys his daughter could have chosen...
Director: John Hamburg
Writing By: John Hamburg,Ian Helfer,Jonah Hill,John Hamburg,Ian Helfer,
Produced By: James Franco,John Hamburg,Jonah Hill,Georgia Kacandes,Dan Levine,Shawn Levy,Scott Robertson,Ben Stiller,
Music: Theodore Shapiro
Plot:
Over the holidays, Ned (Bryan Cranston), an overprotective but loving dad and his family visit his daughter at Stanford, where he meets his biggest nightmare: her well-meaning but socially awkward Silicon Valley millionaire boyfriend, Laird (James Franco). The rivalry develops,and Ned's panic level goes through the roof when he finds himself lost in this glamorous high-tech world and learns that Laird is about to pop the question.
- Written by 20th Century Fox
A holiday gathering threatens to go off the rails when Ned Fleming realizes that his daughter's Silicon Valley millionaire boyfriend is about to pop the question.

Cast:
Zoey Deutch as Stephanie Fleming
James Franco as Laird Mayhew
Tangie Ambrose as Patty Dunne
Cedric the Entertainer as Lou Dunne
Bob Stephenson as Jerry in Graphics
Bryan Cranston as Ned Fleming
Megan Mullally as Barb Fleming
Zack Pearlman as Kevin Dingle
Griffin Gluck as Scotty Fleming
Jee Young Han as Marnie Dingle
Trailers:
Global Trailer
Official Trailer


Details
Name:Why Him (2016) 720p BluRay x264[Dual-Audio][English DD 5.1+Hindi DD 5.1] - Mafiaking - M2Tv
Description:
Why Him (2016) BluRay 720p x264 [Dual-Audio] [English DD 5.1 + Hindi DD 5.1] - Mafiaking - M2Tv

 

 

Genere: Comedy

Format : Matroska
Format version : Version 4 / Version 2
File size : 1.09 GiB
Duration : 1 h 51 min
Overall bit rate : 1 399 kb/s
Movie name : Why Him (2016) 720p BluRay x264[Dual-Audio][English DD 5.1+Hindi DD 5.1] - Mafiaking - M2Tv
Encoded date : UTC 2017-04-17 13:28:44
Writing application : mkvmerge v7.0.0 ('Where We Going') 32bit built on Jun 9 2014 15:08:34
Writing library : libebml v1.3.0 + libmatroska v1.4.1

Video
ID : 1
Format : AVC
Format/Info : Advanced Video Codec
Format profile : High@L3.1
Format settings, CABAC : Yes
Format settings, ReFrames : 3 frames
Codec ID : V_MPEG4/ISO/AVC
Duration : 1 h 51 min
Bit rate : 950 kb/s
Width : 1 280 pixels
Height : 688 pixels
Display aspect ratio : 1.85:1
Frame rate mode : Constant
Frame rate : 23.976 (24000/1001) FPS
Color space : YUV
Chroma subsampling : 4:2:0
Bit depth : 8 bits
Scan type : Progressive
Bits/(Pixel*Frame) : 0.045
Stream size : 755 MiB (68%)
Title : Mafiaking
Language : English
Default : Yes
Forced : No

Audio #1
ID : 2
Format : AC-3
Format/Info : Audio Coding 3
Mode extension : CM (complete main)
Format settings, Endianness : Big
Codec ID : A_AC3
Duration : 1 h 51 min
Bit rate mode : Constant
Bit rate : 224 kb/s
Channel(s) : 6 channels
Channel positions : Front: L C R, Side: L R, LFE
Sampling rate : 48.0 kHz
Frame rate : 31.250 FPS (1536 spf)
Compression mode : Lossy
Stream size : 178 MiB (16%)
Title : Mafiaking
Language : Hindi
Default : Yes
Forced : No

Audio #2
ID : 3
Format : AC-3
Format/Info : Audio Coding 3
Mode extension : CM (complete main)
Format settings, Endianness : Big
Codec ID : A_AC3
Duration : 1 h 51 min
Bit rate mode : Constant
Bit rate : 224 kb/s
Channel(s) : 6 channels
Channel positions : Front: L C R, Side: L R, LFE
Sampling rate : 48.0 kHz
Frame rate : 31.250 FPS (1536 spf)
Compression mode : Lossy
Stream size : 178 MiB (16%)
Title : Mafiaking
Language : English
Default : No
Forced : No

 

 
 
 
 
 
 
Category:Movies > Hollywood Dub
Lang:Hindi
Total Size:1.10 GB



|| Download This Movie Via Single Resumable Links Size: 1.09 GB ||

Direct-1 Google Drive | Direct-2 | Direct-3 |

Watch Online Click Here

No comments:

Post a Comment