Crazy World Only 4 You

Sorry For The Inconvenience. If You are facing link dead or no google drive file access then inform us via comment

Latest Updates

Tuesday, 29 May 2018

Aamir (2008) Hindi 720p HDRip - x264 - AAC - Team IcTv -={SPARROW}=-


Poster


iMDB
Imdb Picture Title: Aamir
Year: 2008
Runtime: 99 minutes
Votes: 8842
Rating: 7.8/10
Language: Hindi
Country: India
All Genres: Crime, Drama, Thriller
Plot Outline: Aamir Ali lives a middle-classed lifestyle in Mumbai along with his dad, Rashid; mom, Taranum; three sisters: Nargis, Shabana, and Falak; and a brother, Jameel. After his dad passes away, Aamir re-locates to Britain, studies, obtains a medical degree, and returns home. Upon arrival at Mumbai Airport, he is hassled by the Customs Officer and his baggage is searched several times. Finally, he is permitted to leave. Outside the airport he is approached by two men on a motorbike, and one of them hands him a cellphone. Aamir accepts the cellphone and thus begins his nightmare that will propel him all the way to Dongri, then to Bhendi Bazar, where he will be given a red suitcase containing cash. He will be told that he must deliver this suitcase at another location within a specified time or else his family will all be killed. Aamir agrees to do so but before he could even arrive at the location, the suitcase gets stolen. The question remains: will Aamir be able to locate it and deliver it ... Written by rAjOo (gunwanti@hotmail.com)
Tagline: Deliver unspeakable terror or lose everyone you love...
Director: Raj Kumar Gupta
Writing By: Raj Kumar Gupta,
Produced By: Supavitra Babul,Vikas Bahl,Ashwani Chopra,Siddharth Roy Kapur,Anurag Kashyap,Rohit Khaitan,Deven Khote,Zarina Mehta,Ram Mirchandani,Alpana Mishra,Rucha Pathak,Ronnie Screwvala,
Music: Amit Trivedi
Cast:
Rajeev Khandelwal as Dr. Aamir Ali
Aishwarya as Falak
Vasan Bala as Messenger at Airport
Chinkal as Nargis
Shashanka Ghosh as
Rohitashv Gour as Custum officer at airport
Jhilmil Hazrika as Girl at Indo-Gulf Hotel
Junaid as Jameel
Amar Kaushik as Stud in the bus
Abhas Khan as Kid in BEST bus

Details
Name:Aamir (2008) - 720p - HDRip - x264 - AAC - Team IcTv -={SPARROW}=-
Description:
Aamir 2008 - 720p - HDRip - x264 - AAC - Team IcTv -={SPARROW}=-

 

Format                                   : MPEG-4
Format profile                           : Base Media
Codec ID                                 : isom (isom/avc1/iso6)
File size                                : 823 MiB
Duration                                 : 1 h 39 min
Overall bit rate mode                    : Variable
Overall bit rate                         : 1 153 kb/s
Encoded date                             : UTC 2015-08-11 09:23:07
Tagged date                              : UTC 2015-08-11 09:23:07

Video
ID                                       : 1
Format                                   : AVC
Format/Info                              : Advanced Video Codec
Format profile                           : High@L4.1
Format settings                          : CABAC / 4 Ref Frames
Format settings, CABAC                   : Yes
Format settings, RefFrames               : 4 frames
Codec ID                                 : avc1
Codec ID/Info                            : Advanced Video Coding
Duration                                 : 1 h 39 min
Bit rate                                 : 900 kb/s
Maximum bit rate                         : 9 042 kb/s
Width                                    : 1 280 pixels
Height                                   : 544 pixels
Display aspect ratio                     : 2.35:1
Frame rate mode                          : Constant
Frame rate                               : 24.000 FPS
Color space                              : YUV
Chroma subsampling                       : 4:2:0
Bit depth                                : 8 bits
Scan type                                : Progressive
Bits/(Pixel*Frame)                       : 0.054
Stream size                              : 642 MiB (78%)
Writing library                          : x264 core 148 r2579 73ae2d1
Encoded date                             : UTC 2015-08-11 09:23:07
Tagged date                              : UTC 2015-08-11 09:23:20

Audio
ID                                       : 2
Format                                   : AAC
Format/Info                              : Advanced Audio Codec
Format profile                           : LC
Codec ID                                 : mp4a-40-2
Duration                                 : 1 h 39 min
Bit rate mode                            : Variable
Bit rate                                 : 250 kb/s
Maximum bit rate                         : 261 kb/s
Channel(s)                               : 2 channels
Channel positions                        : Front: L R
Sampling rate                            : 44.1 kHz
Frame rate                               : 43.066 FPS (1024 SPF)
Compression mode                         : Lossy
Stream size                              : 178 MiB (22%)
Language                                 : Hindi
Encoded date                             : UTC 2015-08-11 08:12:55
Tagged date                              : UTC 2015-08-11 09:23:20

 

Category:Movies > Bollywood
Lang:Hindi
Total Size:839.94 MB



|| Download This Movie Via Single Resumable Links Size: 823 MB ||

Direct-1 Google Drive | Direct-2 | Direct-3 |

Watch Online Click Here

No comments:

Post a Comment