Crazy World Only 4 You

Sorry For The Inconvenience. If You are facing link dead or no google drive file access then inform us via comment

Latest Updates

Wednesday, 23 May 2018

Ali G Indahouse (2002) 720p Web-DL x264 [Dual Audio] [Hindi DD 5.1 - Eng 2.0] AAC Esub -=!Katyayan!=-


Poster


iMDB
Imdb Picture Original Title: Ali G Indahouse
Title: Ali G
Year: 2002
Runtime: 85 minutes
Votes: 75268
Rating: 6.2/10
Language: English, French, Spanish
Country: France, UK, Germany
All Genres: Comedy, Romance
Plot Outline: Ali G unwittingly becomes a pawn in the evil Chancellor's plot to overthrow the Prime Minister of Great Britain. However, instead of bringing the Prime Minister down, Ali is embraced by the nation as the voice of youth and 'realness', making the Prime Minister and his government more popular than ever. Written by Anonymous
Tagline: Blair Beware
Director: Mark Mylod
Writing By: Sacha Baron Cohen,Dan Mazer,
Produced By: Sacha Baron Cohen,Mairi Bett,Tim Bevan,Eric Fellner,Peter Fincham,William Green,Dan Mazer,Debra Piazzie,Natascha Wharton,
Music: Adam F.
Cast:
Sacha Baron Cohen as Ali G / Borat
Emilio Rivera as Rico
Gina La Piana as Hoochie 1
Dana de Celis as Hoochie 2
Dominic Delesilva as Young Boy
Jacqueline Castro as Mum
Jesse Acosta as Gangster
Mário Aguilar as Gangster
Gary Baxley as Gangster
Carlos Ayala as Gangster


Details
Name:Ali G Indahouse (2002) 720p Web-DL x264 [Dual Audio] [Hindi DD 5.1 - Eng 2.0] AAC Esub -=!Katya...
Description:
Ali G Indahouse (2002) 720p Web-DL x264 [Dual Audio] [Hindi DD 5.1 - Eng 2.0] AAC Esub -=!Katyayan!=-
 

Format                                   : Matroska
Format version                           : Version 4 / Version 2
File size                                : 778 MiB
Duration                                 : 1 h 27 min
Overall bit rate                         : 1 249 kb/s
Movie name                               : Ali G Indahouse (2002) 720p Web-DL x264 [Dual Audio] [Hindi DD 5.1 - Eng 2.0] AAC Esub -=!Katyayan!=-

Video
ID                                       : 1
Format                                   : AVC
Format/Info                              : Advanced Video Codec
Format profile                           : High@L3.1
Format settings                          : CABAC / 4 Ref Frames
Format settings, CABAC                   : Yes
Format settings, RefFrames               : 4 frames
Codec ID                                 : V_MPEG4/ISO/AVC
Duration                                 : 1 h 27 min
Bit rate                                 : 994 kb/s
Width                                    : 1 280 pixels
Height                                   : 694 pixels
Display aspect ratio                     : 1.85:1
Frame rate mode                          : Constant
Frame rate                               : 25.000 FPS
Color space                              : YUV
Chroma subsampling                       : 4:2:0
Bit depth                                : 8 bits
Scan type                                : Progressive
Bits/(Pixel*Frame)                       : 0.045
Stream size                              : 617 MiB (79%)
Title                                    : Ali G Indahouse (2002) 720p Web-DL x264 [Dual Audio] [Hindi DD 5.1 - Eng 2.0] AAC Esub -=!Katyayan!=-
Writing library                          : x264 core 148 r2643 5c65704
Language                                 : English
Default                                  : Yes
Forced                                   : No

Audio #1
ID                                       : 2
Format                                   : AAC
Format/Info                              : Advanced Audio Codec
Format profile                           : LC
Codec ID                                 : A_AAC-2
Duration                                 : 1 h 27 min
Bit rate                                 : 192 kb/s
Channel(s)                               : 6 channels
Channel positions                        : Front: L C R, Side: L R, LFE
Sampling rate                            : 48.0 kHz
Frame rate                               : 46.875 FPS (1024 SPF)
Compression mode                         : Lossy
Stream size                              : 120 MiB (15%)
Title                                    : -=!Katyayan!=-
Language                                 : Hindi
Default                                  : Yes
Forced                                   : Yes

Audio #2
ID                                       : 3
Format                                   : AAC
Format/Info                              : Advanced Audio Codec
Format profile                           : HE-AAC / LC
Format settings                          : Explicit
Codec ID                                 : A_AAC-2
Duration                                 : 1 h 27 min
Bit rate                                 : 64.0 kb/s
Channel(s)                               : 2 channels
Channel positions                        : Front: L R
Sampling rate                            : 48.0 kHz / 24.0 kHz
Frame rate                               : 23.438 FPS (1024 SPF)
Compression mode                         : Lossy
Delay relative to video                  : 31 ms
Stream size                              : 39.9 MiB (5%)
Title                                    : -=!Katyayan!=-
Language                                 : English
Default                                  : No
Forced                                   : No

Text
ID                                       : 4
Format                                   : UTF-8
Codec ID                                 : S_TEXT/UTF8
Codec ID/Info                            : UTF-8 Plain Text
Duration                                 : 1 h 27 min
Bit rate                                 : 73 b/s
Count of elements                        : 1169
Stream size                              : 46.8 KiB (0%)
Title                                    : -=!Katyayan!=-
Language                                 : English
Default                                  : Yes
Forced                                   : Yes

Menu
00:00:00.000                             : en : Straight Outta Staines
00:04:46.000                             : en : The Dog's Bollocks
00:05:58.000                             : en : The Berkshire Turf Wars
00:10:33.000                             : en : Keepin' It Real
00:13:41.000                             : en : Dishonourable Member
00:14:31.000                             : en : Me Julie
00:15:10.000                             : en : Ali's Dream
00:17:04.000                             : en : Ali on Hunger Strike
00:24:42.000                             : en : Fear and Loathing on the Campaign Trail
00:30:37.000                             : en : Ali's Respectable Member
00:31:56.000                             : en : R-E-S-T-E-C-P
00:36:18.000                             : en : Sex&Drugs&Customs&Excise
00:39:32.000                             : en : Ali's Manifesto
00:42:28.000                             : en : A Complete Bell End
00:50:39.000                             : en : Peace
00:55:42.000                             : en : Missing Me Julie
00:56:58.000                             : en : The Last Temptation of Ali G
01:00:28.000                             : en : Drive-By FM
01:04:22.000                             : en : Mission: Well-Tricky
01:18:44.000                             : en : Da (Bell) End


 

Category:Movies > Hollywood Dub
Lang:Hindi
Total Size:778.29 MB



|| Download This Movie Via Single Resumable Links Size: 778 MB ||

Direct-1 Google Drive | Direct-2 | Direct-3 |

Watch Online Click Here

No comments:

Post a Comment