Crazy World Only 4 You

Sorry For The Inconvenience. If You are facing link dead or no google drive file access then inform us via comment

Latest Updates

Saturday, 5 May 2018

American Pie Presents- The Naked Mile (2006) 720p WEBRIP x264 Dual Audio [Hindi DD5.1 - English DD2.0] - Esub ~ Ranvijay


Poster
a0d0dff33c123368cf0a3c83dd6b0e10.jpg


iMDB
Imdb Picture Original Title: The Naked Mile
Title: American Pie Presents: The Naked Mile
Year: 2006
Runtime: 97 minutes
Votes: 57369
Rating: 5.2/10
Language: English
Country: Canada, USA
All Genres: Comedy
Plot Outline: The movie will shift its focus on Erik Stifler, the cousin of Matt and Steve, a youngster who is nothing like his wild relations. Peer pressure starts to turn him to live up to the legacy of the other Stiflers when he attends the Naked Mile, a naked run across the college campus. Things get worse when he finds that his cousin Dwight is the life of the party down at the campus. Written by fmmini + Xilonian
Tagline: the most outrageous slice of pie!
Director: Joe Nussbaum
Writing By: Adam Herz,Erik Lindsay,
Produced By: W.K. Border,Byron A. Martin,Craig Perry,Joel Soisson,Warren Zide,
Music: Jeff Cardoni
Cast:
John White as Erik Stifler
Maria Ricossa as Mrs. Stifler
Christopher McDonald as Mr. Stifler
Joe Bostick as Mr. Williams
Alyssa Nicole Pallett as Porn Star
Jessica Booker as Grandmother
Jake Siegel as Cooze
Ross Thomas as Ryan
Michelle Cormier as High School Blonde
Stephany Sexton as High School Brunette
Trailers:
American Pie Presents: The Naked Mile



Details
Name:American Pie Presents- The Naked Mile (2006) 720p WEBRIP x264 Dual Audio ~ Ranvijay
Description:
American Pie Presents- The Naked Mile (2006) 720p WEBRIP x264 Dual Audio [Hindi DD5.1 - English DD2.0] - Esub ~ Ranvijay



Format                                   : Matroska
Format version                           : Version 4 / Version 2
File size                                : 1.10 GiB
Duration                                 : 1 h 41 min
Overall bit rate                         : 1 552 kb/s
Movie name                               : American Pie Presents- The Naked Mile (2006) 720p WEBRIP x264 Dual Audio [Hindi DD5.1 - English DD2.0] - Esub ~ Ranvijay

Video
ID                                       : 1
Format                                   : AVC
Duration                                 : 1 h 41 min
Bit rate                                 : 1 087 kb/s
Width                                    : 1 280 pixels
Height                                   : 694 pixels
Display aspect ratio                     : 1.85:1
Frame rate mode                          : Constant
Frame rate                               : 23.976 (24000/1001) FPS
Stream size                              : 791 MiB (70%)
Title                                    : ~Ranvijay~
Language                                 : English
Default                                  : Yes
Forced                                   : No

Audio #1
ID                                       : 2
Format                                   : AC-3
Format/Info                              : Audio Coding 3
Codec ID                                 : A_AC3
Duration                                 : 1 h 41 min
Bit rate mode                            : Constant
Bit rate                                 : 384 kb/s
Channel(s)                               : 6 channels
Channel positions                        : Front: L C R, Side: L R, LFE
Sampling rate                            : 48.0 kHz
Frame rate                               : 31.250 FPS (1536 SPF)
Bit depth                                : 16 bits
Compression mode                         : Lossy
Stream size                              : 280 MiB (25%)
Title                                    : ~Ranvijay~
Language                                 : Hindi
Service kind                             : Complete Main
Default                                  : Yes
Forced                                   : No

Audio #2
ID                                       : 3
Format                                   : AAC
Format/Info                              : Advanced Audio Codec
Format profile                           : LC
Codec ID                                 : A_AAC-2
Duration                                 : 1 h 41 min
Bit rate                                 : 79.6 kb/s
Channel(s)                               : 2 channels
Channel positions                        : Front: L R
Sampling rate                            : 48.0 kHz
Frame rate                               : 46.875 FPS (1024 SPF)
Compression mode                         : Lossy
Delay relative to video                  : 9 ms
Stream size                              : 57.9 MiB (5%)
Title                                    : ~Ranvijay~
Language                                 : English
Default                                  : No
Forced                                   : No

Text
ID                                       : 4
Format                                   : UTF-8
Codec ID                                 : S_TEXT/UTF8
Codec ID/Info                            : UTF-8 Plain Text
Duration                                 : 1 h 37 min
Bit rate                                 : 65 b/s
Count of elements                        : 1468
Stream size                              : 46.9 KiB (0%)
Title                                    : ~Ranvijay~
Language                                 : English
Default                                  : Yes
Forced                                   : No

Menu
00:00:00.000                             : en:Grandma
00:03:53.000                             : en:Story of My Life
00:06:32.000                             : en:The Virgin Stifler
00:09:47.000                             : en:“I Wanna Have Sex”
00:13:48.000                             : en:Disturbing Noise
00:20:31.000                             : en:Guilt-Free Pass
00:29:06.000                             : en:Heavyweight Drinking Champion
00:34:00.000                             : en:Serious Problem
00:36:25.000                             : en:Vertically Challenged
00:46:08.000                             : en:Welcome to Paradise
00:53:34.000                             : en:Seeking Counsel
00:59:40.000                             : en:Van Attack
01:02:58.000                             : en:Proud Tradition
01:09:29.000                             : en:The Greatest Race
01:13:35.000                             : en:Hardball
01:20:47.000                             : en:Special Night
01:24:48.000                             : en:Getting Down
01:28:10.000                             : en:The Most Important Thing
01:35:12.000                             : en:Earning the Name
01:38:23.000                             : en:End Titles 

7fed490f0408a938e5afde06662b976a.th.png 76ae31b00354eb346e17fa9648474f76.th.png 1d80d2471b89e9b6dba5ce70ee9e50cf.th.png 3dab71687956f8c2fdc80275c68deebb.th.png 4f95d06dd192ced503786a8056f507be.th.png 5b634ebbaa24281e37d4f67fb7df4b64.th.png
Category:Movies > Hollywood Dub
Lang:Hindi
Total Size:1.10 GB



|| Download This Movie Via Single Resumable Links Size: 1.10 GB ||

Direct-1 Google Drive | Direct-2 | Direct-3 |

Watch Online Click Here

No comments:

Post a Comment