STAY WITH US

header ads

Amoli 2018 720p WebHD M.Audio [Hindi-English-Tamil-Telugu-Bengali-Marathi-Kannada] x264 AAC -=!Katyayan!=-


Poster


iMDB
Imdb Picture Title: Amoli
Year: 2018
Runtime: 28 minutes
Language: Hindi
Country: India
All Genres: Documentary, Short
Director: Avinash Roy
Jasmine Kaur Roy
Writing By: Avinash Roy,Jasmine Kaur Roy,
Produced By: Sameer Pitalwalla,
Music: Tajdar Junaid
Cast:



Details
Name:Amoli (2018) 720p WebHD M.Audio [Hindi-English-Tamil-Telugu-Bengali-Marathi-Kannada] x264 AAC -...
Description:
Amoli 2018 720p WebHD M.Audio [Hindi-English-Tamil-Telugu-Bengali-Marathi-Kannada] x264 AAC -=!Katyayan!=-



Format                                   : Matroska
Format version                           : Version 4 / Version 2
File size                                : 368 MiB
Duration                                 : 28 min 57 s
Overall bit rate                         : 1 777 kb/s
Movie name                               : Amoli 2018 720p WebHD M.Audio [Hindi-English-Tamil-Telugu-Bengali-Marathi-Kannada] x264 AAC -=!Katyayan!=-

Video
ID                                       : 1
Format                                   : AVC
Format/Info                              : Advanced Video Codec
Format profile                           : High@L4.1
Format settings                          : CABAC / 4 Ref Frames
Format settings, CABAC                   : Yes
Format settings, RefFrames               : 4 frames
Codec ID                                 : V_MPEG4/ISO/AVC
Duration                                 : 28 min 57 s
Bit rate                                 : 877 kb/s
Nominal bit rate                         : 1 000 kb/s
Width                                    : 1 280 pixels
Height                                   : 720 pixels
Display aspect ratio                     : 16:9
Frame rate mode                          : Constant
Frame rate                               : 23.976 (24000/1001) FPS
Color space                              : YUV
Chroma subsampling                       : 4:2:0
Bit depth                                : 8 bits
Scan type                                : Progressive
Bits/(Pixel*Frame)                       : 0.040
Stream size                              : 182 MiB (49%)
Title                                    : Amoli 2018 720p WebHD M.Audio [Hindi-English-Tamil-Telugu-Bengali-Marathi-Kannada] x264 AAC -=!Katyayan!=-
Writing library                          : x264 core 148 r2705kMod 3f5ed56
Default                                  : Yes
Forced                                   : No

Audio #1
ID                                       : 2
Format                                   : AAC
Format/Info                              : Advanced Audio Codec
Format profile                           : HE-AAC / LC
Format settings                          : Explicit
Codec ID                                 : A_AAC-2
Duration                                 : 28 min 57 s
Bit rate                                 : 128 kb/s
Channel(s)                               : 2 channels
Channel positions                        : Front: L R
Sampling rate                            : 48.0 kHz / 24.0 kHz
Frame rate                               : 23.438 FPS (1024 SPF)
Compression mode                         : Lossy
Delay relative to video                  : 7 ms
Stream size                              : 26.5 MiB (7%)
Title                                    : -=!Katyayan!=-
Language                                 : Bengali
Default                                  : No
Forced                                   : No

Audio #2
ID                                       : 3
Format                                   : AAC
Format/Info                              : Advanced Audio Codec
Format profile                           : HE-AAC / LC
Format settings                          : Explicit
Codec ID                                 : A_AAC-2
Duration                                 : 28 min 55 s
Bit rate                                 : 128 kb/s
Channel(s)                               : 2 channels
Channel positions                        : Front: L R
Sampling rate                            : 48.0 kHz / 24.0 kHz
Frame rate                               : 23.438 FPS (1024 SPF)
Compression mode                         : Lossy
Delay relative to video                  : 7 ms
Stream size                              : 26.5 MiB (7%)
Title                                    : -=!Katyayan!=-
Language                                 : English
Default                                  : No
Forced                                   : No

Audio #3
ID                                       : 4
Format                                   : AAC
Format/Info                              : Advanced Audio Codec
Format profile                           : HE-AAC / LC
Format settings                          : Explicit
Codec ID                                 : A_AAC-2
Duration                                 : 28 min 57 s
Bit rate                                 : 128 kb/s
Channel(s)                               : 2 channels
Channel positions                        : Front: L R
Sampling rate                            : 48.0 kHz / 24.0 kHz
Frame rate                               : 23.438 FPS (1024 SPF)
Compression mode                         : Lossy
Delay relative to video                  : 31 ms
Stream size                              : 26.5 MiB (7%)
Title                                    : -=!Katyayan!=-
Language                                 : Hindi
Default                                  : Yes
Forced                                   : Yes

Audio #4
ID                                       : 5
Format                                   : AAC
Format/Info                              : Advanced Audio Codec
Format profile                           : HE-AAC / LC
Format settings                          : Explicit
Codec ID                                 : A_AAC-2
Duration                                 : 28 min 57 s
Bit rate                                 : 128 kb/s
Channel(s)                               : 2 channels
Channel positions                        : Front: L R
Sampling rate                            : 48.0 kHz / 24.0 kHz
Frame rate                               : 23.438 FPS (1024 SPF)
Compression mode                         : Lossy
Delay relative to video                  : 7 ms
Stream size                              : 26.5 MiB (7%)
Title                                    : -=!Katyayan!=-
Language                                 : Kannada
Default                                  : No
Forced                                   : No

Audio #5
ID                                       : 6
Format                                   : AAC
Format/Info                              : Advanced Audio Codec
Format profile                           : HE-AAC / LC
Format settings                          : Explicit
Codec ID                                 : A_AAC-2
Duration                                 : 28 min 57 s
Bit rate                                 : 128 kb/s
Channel(s)                               : 2 channels
Channel positions                        : Front: L R
Sampling rate                            : 48.0 kHz / 24.0 kHz
Frame rate                               : 23.438 FPS (1024 SPF)
Compression mode                         : Lossy
Delay relative to video                  : 7 ms
Stream size                              : 26.5 MiB (7%)
Title                                    : -=!Katyayan!=-
Language                                 : Marathi
Default                                  : No
Forced                                   : No

Audio #6
ID                                       : 7
Format                                   : AAC
Format/Info                              : Advanced Audio Codec
Format profile                           : HE-AAC / LC
Format settings                          : Explicit
Codec ID                                 : A_AAC-2
Duration                                 : 28 min 57 s
Bit rate                                 : 128 kb/s
Channel(s)                               : 2 channels
Channel positions                        : Front: L R
Sampling rate                            : 48.0 kHz / 24.0 kHz
Frame rate                               : 23.438 FPS (1024 SPF)
Compression mode                         : Lossy
Delay relative to video                  : 7 ms
Stream size                              : 26.5 MiB (7%)
Title                                    : -=!Katyayan!=-
Language                                 : Tamil
Default                                  : No
Forced                                   : No

Audio #7
ID                                       : 8
Format                                   : AAC
Format/Info                              : Advanced Audio Codec
Format profile                           : HE-AAC / LC
Format settings                          : Explicit
Codec ID                                 : A_AAC-2
Duration                                 : 28 min 57 s
Bit rate                                 : 128 kb/s
Channel(s)                               : 2 channels
Channel positions                        : Front: L R
Sampling rate                            : 48.0 kHz / 24.0 kHz
Frame rate                               : 23.438 FPS (1024 SPF)
Compression mode                         : Lossy
Delay relative to video                  : 7 ms
Stream size                              : 26.5 MiB (7%)
Title                                    : -=!Katyayan!=-
Language                                 : Telugu
Default                                  : No
Forced                                   : No

Text
ID                                       : 9
Format                                   : UTF-8
Codec ID                                 : S_TEXT/UTF8
Codec ID/Info                            : UTF-8 Plain Text
Duration                                 : 18 min 4 s
Bit rate                                 : 18 b/s
Count of elements                        : 2
Stream size                              : 2.51 KiB (0%)
Title                                    : -=!Katyayan!=-
Language                                 : English
Default                                  : Yes
Forced                                   : Yes


 
Category:Movies > South Dub
Lang:Hindi
Total Size:370.22 MB



|| Download This Movie Via Single Resumable Links Size: 368 MB ||

Direct-1 Google Drive | Direct-2 | Direct-3 |

Watch Online Click Here

Post a Comment

0 Comments