Crazy World Only 4 You

Sorry For The Inconvenience. If You are facing link dead or no google drive file access then inform us via comment

Latest Updates

Wednesday, 23 May 2018

Baby Mama (2008) BluRay 720p x264 [Dual Audio] [Hindi DD 5.1 - Eng 2.0] AAC Esub -=!Katyayan!=-


Poster


iMDB
Imdb Picture Title: Baby Mama
Year: 2008
Runtime: 99 minutes
Votes: 36850
Rating: 6.0/10
Language: English
Country: USA
All Genres: Comedy, Romance
Plot Outline: Successful and single businesswoman Kate Holbrook has long put her career ahead of a personal life. Now 37, she's finally determined to have a kid on her own. But her plan is thrown a curve ball after she discovers she has only a million-to-one chance of getting pregnant. Undaunted, the driven Kate allows South Philly working girl Angie Ostrowiski to become her unlikely surrogate. Simple enough ... After learning from the steely head of their surrogacy center that Angie is pregnant, Kate goes into precision nesting mode: reading childcare books, baby-proofing the apartment and researching top pre-schools. But the executive's well-organized strategy is turned upside down when her Baby Mama shows up at her doorstep with no place to live. An unstoppable force meets an immovable object as structured Kate tries to turn vibrant Angie into the perfect expectant mom. In a battle of wills, they will struggle their way through preparation for the baby's arrival. And in the middle of this ... Written by Universal Pictures
Tagline: Would You Pay Her... To Have Your Baby?
Director: Michael McCullers
Writing By: Michael McCullers,
Produced By: Kay Cannon,Erin David,John Goldwyn,Ryan Kavanaugh,Jill Sobel Messick,Lorne Michaels,Louise Rosner,
Music: Jeff Richmond
Cast:
Amy Poehler as Angie
Tina Fey as Kate
Greg Kinnear as Rob
Dax Shepard as Carl
Romany Malco as Oscar
Sigourney Weaver as Chaffee Bicknell
Steve Martin as Barry
Maura Tierney as Caroline
Stephen Mailer as Dan
Holland Taylor as Rose
Trailers:
Baby Mama

Details
Name:Baby Mama (2008) BluRay 720p x264 [Dual Audio] [Hindi DD 5.1 - Eng 2.0] AAC Esub -=!Katyayan!=-
Description:
Baby Mama 2008 BluRay 720p x264 [Dual Audio] [Hindi DD 5.1 - Eng 2.0] AAC Esub -=!Katyayan!=-

 

All Credit Goes To ~Hammer~

Format                                   : Matroska
Format version                           : Version 4 / Version 2
File size                                : 898 MiB
Duration                                 : 1 h 38 min
Overall bit rate                         : 1 268 kb/s
Movie name                               : Baby Mama 2008 BluRay 720p x264 [Dual Audio] [Hindi DD 5.1 - Eng 2.0] AAC Esub -=!Katyayan!=-

Video
ID                                       : 1
Format                                   : AVC
Format/Info                              : Advanced Video Codec
Format profile                           : High@L4.1
Format settings                          : CABAC / 9 Ref Frames
Format settings, CABAC                   : Yes
Format settings, RefFrames               : 9 frames
Codec ID                                 : V_MPEG4/ISO/AVC
Duration                                 : 1 h 38 min
Bit rate                                 : 1 015 kb/s
Width                                    : 1 280 pixels
Height                                   : 692 pixels
Display aspect ratio                     : 1.85:1
Frame rate mode                          : Constant
Frame rate                               : 23.976 (24000/1001) FPS
Color space                              : YUV
Chroma subsampling                       : 4:2:0
Bit depth                                : 8 bits
Scan type                                : Progressive
Bits/(Pixel*Frame)                       : 0.048
Stream size                              : 714 MiB (80%)
Title                                    : Baby Mama 2008 BluRay 720p x264 [Dual Audio] [Hindi DD 5.1 - Eng 2.0] AAC Esub -=!Katyayan!=-
Writing library                          : x264 core 148 r2795 aaa9aa8
Language                                 : English
Default                                  : Yes
Forced                                   : No

Audio #1
ID                                       : 2
Format                                   : AAC
Format/Info                              : Advanced Audio Codec
Format profile                           : LC
Codec ID                                 : A_AAC-2
Duration                                 : 1 h 38 min
Bit rate                                 : 192 kb/s
Channel(s)                               : 6 channels
Channel positions                        : Front: L C R, Side: L R, LFE
Sampling rate                            : 48.0 kHz
Frame rate                               : 46.875 FPS (1024 SPF)
Compression mode                         : Lossy
Delay relative to video                  : 1 s 0 ms
Stream size                              : 136 MiB (15%)
Title                                    : -=!Katyayan!=-
Language                                 : Hindi
Default                                  : Yes
Forced                                   : Yes

Audio #2
ID                                       : 3
Format                                   : AAC
Format/Info                              : Advanced Audio Codec
Format profile                           : HE-AAC / LC
Format settings                          : Explicit
Codec ID                                 : A_AAC-2
Duration                                 : 1 h 38 min
Bit rate                                 : 63.9 kb/s
Channel(s)                               : 2 channels
Channel positions                        : Front: L R
Sampling rate                            : 48.0 kHz / 24.0 kHz
Frame rate                               : 23.438 FPS (1024 SPF)
Compression mode                         : Lossy
Delay relative to video                  : 31 ms
Stream size                              : 45.3 MiB (5%)
Title                                    : -=!Katyayan!=-
Language                                 : English
Default                                  : No
Forced                                   : No

Text
ID                                       : 4
Format                                   : UTF-8
Codec ID                                 : S_TEXT/UTF8
Codec ID/Info                            : UTF-8 Plain Text
Duration                                 : 1 h 34 min
Bit rate                                 : 118 b/s
Count of elements                        : 1791
Stream size                              : 82.1 KiB (0%)
Title                                    : -=!Katyayan!=-
Language                                 : English
Default                                  : Yes
Forced                                   : Yes

 

Category:Movies > Hollywood Dub
Lang:Hindi
Total Size:897.77 MB



|| Download This Movie Via Single Resumable Links Size: 898 MB ||

Direct-1 Google Drive | Direct-2 | Direct-3 |

Watch Online Click Here

No comments:

Post a Comment