Crazy World Only 4 You

Sorry For The Inconvenience. If You are facing link dead or no google drive file access then inform us via comment

Latest Updates

Wednesday, 30 May 2018

Big Fat Liar (2002) BluRay 720p x264 Dual Audio [Hindi DD5.1 - English DD2.0] - Esub ~ Ranvijay


Poster


iMDB
Imdb Picture Title: Big Fat Liar
Year: 2002
Runtime: 88 minutes
Votes: 31367
Rating: 5.4/10
Language: English
Country: USA, Germany
All Genres: Adventure, Comedy, Family
Plot Outline: A take on the classic tale 'The Boy Who Cried Wolf', this is the story of a 14-year-old boy named Jason Shephard who lies for the fun of it. He loses an important story assignment entitled 'Big Fat Liar' in movie producer Marty Wolf's limo, which Wolf then turns into a film. When Jason sees a movie preview of his story, he and his best friend Kaylee go to Los Angeles to make Wolf confess to using his story, to clear his name, and to get him out of having to attend summer school. The teen liar then has to match wits with Wolf, who also turns out to be a big liar. Written by Anna <annachan@amazon.com>
Tagline: Big Fat Liar is an extremely funny comedy, filed whit nonstop action and hilarious pranks.
Director: Shawn Levy
Writing By: Dan Schneider,Brian Robbins,Dan Schneider,
Produced By: Marie Cantin,Michael Goldman,Brian Robbins,Michael Tollin,
Music: Christophe Beck
Cast:
Frankie Muniz as Jason Shepherd
Paul Giamatti as Marty Wolf
Amanda Bynes as Kaylee
Amanda Detmer as Monty Kirkham
Donald Faison as Frank Jackson
Sandra Oh as Mrs. Phyllis Caldwell
Russell Hornsby as Marcus Duncan
Michael Bryan French as Harry Shepherd
Christine Tucci as Carol Shepherd
Lee Majors as Vince

Details
Name:Big Fat Liar (2002) BluRay 720p x264 Dual Audio [Hindi DD5.1 - English DD2.0] - Esub ~ Ranvijay
Description:
Big Fat Liar (2002) 720p BluRay x264 Dual Audio [Hindi DD5.1 - English DD2.0] - Esub ~ Ranvijay

Thanks To Hammer For Hindi Audio

Format                                   : Matroska
Format version                           : Version 4 / Version 2
File size                                : 941 MiB
Duration                                 : 1 h 27 min
Overall bit rate                         : 1 499 kb/s
Movie name                               : Big Fat Liar (2002) 720p BluRay x264 Dual Audio [Hindi DD5.1 - English DD2.0] - Esub ~ Ranvijay

Video
ID                                       : 1
Format                                   : AVC
Duration                                 : 1 h 27 min
Bit rate                                 : 1 031 kb/s
Width                                    : 1 280 pixels
Height                                   : 688 pixels
Display aspect ratio                     : 1.85:1
Frame rate mode                          : Constant
Frame rate                               : 23.976 (24000/1001) FPS
Stream size                              : 647 MiB (69%)
Title                                    : ~Ranvijay~


Audio #1
ID                                       : 2
Format                                   : AC-3
Format/Info                              : Audio Coding 3
Codec ID                                 : A_AC3
Duration                                 : 1 h 27 min
Bit rate mode                            : Constant
Bit rate                                 : 384 kb/s
Channel(s)                               : 6 channels
Channel positions                        : Front: L C R, Side: L R, LFE
Sampling rate                            : 48.0 kHz
Frame rate                               : 31.250 FPS (1536 SPF)
Bit depth                                : 16 bits
Compression mode                         : Lossy
Stream size                              : 241 MiB (26%)
Title                                    : ~Ranvijay~
Language                                 : Hindi
Service kind                             : Complete Main
Default                                  : Yes
Forced                                   : No

Audio #2
ID                                       : 3
Format                                   : AAC
Format/Info                              : Advanced Audio Codec
Format profile                           : LC
Codec ID                                 : A_AAC-2
Duration                                 : 1 h 27 min
Bit rate                                 : 82.7 kb/s
Channel(s)                               : 2 channels
Channel positions                        : Front: L R
Sampling rate                            : 48.0 kHz
Frame rate                               : 46.875 FPS (1024 SPF)
Compression mode                         : Lossy
Delay relative to video                  : 9 ms
Stream size                              : 51.9 MiB (6%)
Title                                    : ~Ranvijay~
Language                                 : English
Default                                  : No
Forced                                   : No

Text
ID                                       : 4
Format                                   : UTF-8
Codec ID                                 : S_TEXT/UTF8
Codec ID/Info                            : UTF-8 Plain Text
Duration                                 : 1 h 22 min
Bit rate                                 : 62 b/s
Count of elements                        : 1126
Stream size                              : 38.1 KiB (0%)
Title                                    : ~Ranvijay~
Language                                 : English
Default                                  : Yes
Forced                                   : No

Menu
00:00:00.000                             : en:00:00:00.000
00:05:10.143                             : en:00:05:10.143
00:07:01.171                             : en:00:07:01.171
00:12:32.794                             : en:00:12:32.794
00:15:39.730                             : en:00:15:39.730
00:21:27.953                             : en:00:21:27.953
00:33:34.804                             : en:00:33:34.804
00:39:29.617                             : en:00:39:29.617
00:44:46.809                             : en:00:44:46.809
00:47:26.093                             : en:00:47:26.093
00:52:52.503                             : en:00:52:52.503
00:58:16.368                             : en:00:58:16.368
01:03:34.394                             : en:01:03:34.394
01:12:25.716                             : en:01:12:25.716
01:16:23.245                             : en:01:16:23.245
01:18:57.942                             : en:01:18:57.942
01:20:46.550                             : en:01:20:46.550
01:22:55.053                             : en:01:22:55.053 
36a560e663d9fe34a03c24281be08859.th.jpg a955cfc872c74368df9764dd61b469a6.th.jpg 461bbfc082ebd1b6e4a262e54e3f9137.th.jpg 903ed6843e27f9c76c2cd14dd16109bc.th.jpg 13331d8a0d7aa8958bc43e2c5e27376e.th.jpg 95cca5d78b7505e5038cf50fbbd4bced.th.jpg a009b5c69c4f33e3b00ac81b0257cefc.th.jpg 33a58b1bf4b636dc7ef2febaa23788f1.th.jpg
Category:Movies > Hollywood Dub
Lang:Hindi
Total Size:962.76 MB



|| Download This Movie Via Single Resumable Links Size: 941 MB ||

Direct-1 Google Drive | Direct-2 | Direct-3 |

Watch Online Click Here

No comments:

Post a Comment