Crazy World Only 4 You

Sorry For The Inconvenience. If You are facing link dead or no google drive file access then inform us via comment

Latest Updates

Wednesday, 2 May 2018

Bleeding Steel (2017) BluRay 720p Dual Audio [Hindi(Cleaned)+Eng x264 AAC


Poster
2dc731d76a9450ad9bf451475ced5aeb.jpg


iMDB
Imdb Picture Title: Bleeding Steel
Year: 2017
Runtime: 110 minutes
Votes: 58
Rating: 7.0/10
Language: English, Chinese
Country: China, Hong Kong
All Genres: Action, Sci-Fi, Thriller
Plot Outline: Chan stars as a hardened special forces agent who fights to protect a young woman from a sinister criminal gang. At the same time he with feels a special connection to the young woman, like they met in a different life.
Director: Leo Zhang
Writing By: Siwei Cui,Erica Xia-Hou,Leo Zhang,
Produced By: Tara Aucoin,Jackie Chan,Paul Currie,Kyler Huang,Jingya Liu,Kailuo Liu,Sharon Miller,Javier Zhang,
Music: Fei Peng
Cast:
Jackie Chan as
Callan Mulvey as
Tess Haubrich as
Kaitlyn Boyé as Junkie Girl
Damien Garvey as Rick Rogers
Isabelle Wojciechowska as Popcorn Girl
Olga Miller as Female magician's assistant
Kim Gyngell as Scientist
Show Lo as
Amanda Hedges as Ballet Dancer

Details
Name:BLEEDING STEEL 2017 DUAL[ENG-HIN 2.0] WEBRIP 720P-X264-Zi$t
Description:
Bleeding Steel (2017) BluRay 720p Dual Audio [Hindi(Cleaned)+Eng x264 AAC

0c948f86d5cba77f8e78f0e2df5bc5af.jpg

Movie Info

Format : Matroska
Format version : Version 4 / Version 2
File size : 965 MiB
Duration : 1 h 50 min
Overall bit rate : 1 225 kb/s

Video
ID : 1
Format : AVC
Format/Info : Advanced Video Codec
Format profile : High@L4.1
Format settings : CABAC / 8 Ref Frames
Format settings, CABAC : Yes
Format settings, RefFrames : 8 frames
Codec ID : V_MPEG4/ISO/AVC
Duration : 1 h 50 min
Bit rate : 999 kb/s
Width : 1 280 pixels
Height : 544 pixels
Display aspect ratio : 2.35:1
Frame rate mode : Constant
Frame rate : 23.976 (23976/1000) FPS
Color space : YUV
Chroma subsampling : 4:2:0
Bit depth : 8 bits
Scan type : Progressive
Bits/(Pixel*Frame) : 0.060
Stream size : 787 MiB (82%)
Writing library : x264 core 142 r2479 dd79a61
Default : Yes
Forced : No
Color range : Limited
Color primaries : BT.709
Transfer characteristics : BT.709
Matrix coefficients : BT.709

Audio #1
ID : 2
Format : AAC
Format/Info : Advanced Audio Codec
Format profile : LC
Codec ID : A_AAC-2
Duration : 1 h 50 min
Bit rate : 128 kb/s
Channel(s) : 2 channels
Channel positions : Front: L R
Sampling rate : 48.0 kHz
Frame rate : 46.875 FPS (1024 SPF)
Compression mode : Lossy
Delay relative to video : -105 ms
Stream size : 101 MiB (10%)
Language : Hindi
Default : Yes
Forced : No

Audio #2
ID : 3
Format : AAC
Format/Info : Advanced Audio Codec
Format profile : HE-AAC / LC
Format settings : NBC
Codec ID : A_AAC-5
Duration : 1 h 50 min
Bit rate : 96.0 kb/s
Channel(s) : 6 channels
Channel positions : Front: L C R, Side: L R, LFE
Sampling rate : 48.0 kHz / 24.0 kHz
Frame rate : 23.438 FPS (1024 SPF)
Compression mode : Lossy
Delay relative to video : -105 ms
Stream size : 75.6 MiB (8%)
Language : English
Default : No
Forced : No

ScreenShots

Bleeding Steel (2017) Dual Audio Hindi [Cleaned] 720p BluRay Free Download
Bleeding Steel (2017) Dual Audio Hindi [Cleaned] 720p BluRay Free Download
Bleeding Steel (2017) Dual Audio Hindi [Cleaned] 720p BluRay Free Download
Bleeding Steel (2017) Dual Audio Hindi [Cleaned] 720p BluRay Free Download
Category:Movies > Hollywood Dub
Lang:Hindi
Total Size:965.02 MB





:download:

|| Download This Movie Via Single Resumable Links Size: 965 MB ||

Direct-1 Google Drive | Direct-2 | Direct-3 |

Watch Online Click Here

No comments:

Post a Comment