Broken City (2013) BluRay 720p x264 [Dual Audio] [Hindi - Eng] AAC Esub -=!Katyayan!=-


Poster


iMDB
Imdb Picture Title: Broken City
Year: 2013
Runtime: 109 minutes
Votes: 69083
Rating: 6.2/10
Language: English, Spanish
Country: USA
All Genres: Action, Crime, Drama, Mystery, Thriller
Plot Outline: In a city rife with injustice, ex-cop Billy Taggart seeks redemption and revenge after being double-crossed and then framed by its most powerful figure: Mayor Nicholas Hostetler.
Tagline: Proof Can Be a Powerful Weapon.
Director: Allen Hughes
Writing By: Brian Tucker,
Produced By: Brandt Andersen,William S. Beasley,Rodin Alper Bingol,Remington Chase,Randall Emmett,George Furla,Jason Gandhi,Brandon Grimes,Allen Hughes,Scott Lambert,Stephen Levinson,Fredrik Malmberg,Stepan Martirosyan,Arnon Milchan,Jeff Rice,Scott Robinson,Teddy Schwarzman,Adi Shankar,Spencer Silna,Ben Stillman,Brian Tucker,Daniel Wagner,Mark Wahlberg,
Music: Atticus Ross Leopold Ross Claudia Sarne
Cast:
Mark Wahlberg as Billy Taggart
Russell Crowe as Mayor Hostetler
Catherine Zeta-Jones as Cathleen Hostetler
Jeffrey Wright as Carl Fairbanks
Barry Pepper as Jack Valliant
Alona Tal as Katy Bradshaw
Natalie Martinez as Natalie Barrow
Michael Beach as Tony Jansen
Kyle Chandler as Paul Andrews
James Ransone as Todd Lancaster
Trailers:
UK Trailer
Broken City
Trailer #1



Details
Name:Broken City (2013) BluRay 720p x264 [Dual Audio] [Hindi - Eng] AAC Esub -=!Katyayan!=-
Description:
Broken City (2013) BluRay 720p x264 [Dual Audio] [Hindi - Eng] AAC Esub -=!Katyayan!=-

 

Format                                   : Matroska
Format version                           : Version 4 / Version 2
File size                                : 923 MiB
Duration                                 : 1 h 48 min
Overall bit rate                         : 1 187 kb/s
Movie name                               : Broken City (2013) BluRay 720p x264 [Dual Audio] [Hindi - Eng] AAC Esub -=!Katyayan!=-
Encoded date                             : UTC 2018-05-26 14:01:14
Writing application                      : mkvmerge v19.0.0 ('Brave Captain') 32-bit
Writing library                          : libebml v1.3.5 + libmatroska v1.4.8
Attachments                              : Broken City (2013)  Poster.jpg

Video
ID                                       : 1
Format                                   : AVC
Format/Info                              : Advanced Video Codec
Format profile                           : High@L4
Format settings                          : CABAC / 12 Ref Frames
Format settings, CABAC                   : Yes
Format settings, RefFrames               : 12 frames
Codec ID                                 : V_MPEG4/ISO/AVC
Duration                                 : 1 h 48 min
Bit rate                                 : 994 kb/s
Width                                    : 1 280 pixels
Height                                   : 528 pixels
Display aspect ratio                     : 2.40:1
Frame rate mode                          : Constant
Frame rate                               : 23.976 (24000/1001) FPS
Color space                              : YUV
Chroma subsampling                       : 4:2:0
Bit depth                                : 8 bits
Scan type                                : Progressive
Bits/(Pixel*Frame)                       : 0.061
Stream size                              : 772 MiB (84%)
Title                                    : Broken City (2013) BluRay 720p x264 [Dual Audio] [Hindi - Eng] AAC Esub -=!Katyayan!=-
Writing library                          : x264 core 130 r2273 b3065e6
Default                                  : Yes
Forced                                   : No

Audio #1
ID                                       : 2
Format                                   : AAC
Format/Info                              : Advanced Audio Codec
Format profile                           : HE-AAC / LC
Format settings                          : Explicit
Codec ID                                 : A_AAC-2
Duration                                 : 1 h 48 min
Bit rate                                 : 128 kb/s
Channel(s)                               : 2 channels
Channel positions                        : Front: L R
Sampling rate                            : 48.0 kHz / 24.0 kHz
Frame rate                               : 23.438 FPS (1024 SPF)
Compression mode                         : Lossy
Delay relative to video                  : 31 ms
Stream size                              : 99.4 MiB (11%)
Title                                    : -=!Katyayan!=-
Language                                 : Hindi
Default                                  : Yes
Forced                                   : Yes

Audio #2
ID                                       : 3
Format                                   : AAC
Format/Info                              : Advanced Audio Codec
Format profile                           : HE-AAC / LC
Format settings                          : Explicit
Codec ID                                 : A_AAC-2
Duration                                 : 1 h 48 min
Bit rate                                 : 64.0 kb/s
Channel(s)                               : 2 channels
Channel positions                        : Front: L R
Sampling rate                            : 48.0 kHz / 24.0 kHz
Frame rate                               : 23.438 FPS (1024 SPF)
Compression mode                         : Lossy
Delay relative to video                  : 31 ms
Stream size                              : 49.7 MiB (5%)
Title                                    : -=!Katyayan!=-
Language                                 : English
Default                                  : No
Forced                                   : No

Text
ID                                       : 4
Format                                   : UTF-8
Codec ID                                 : S_TEXT/UTF8
Codec ID/Info                            : UTF-8 Plain Text
Duration                                 : 1 h 42 min
Bit rate                                 : 88 b/s
Count of elements                        : 1555
Stream size                              : 66.2 KiB (0%)
Title                                    : -=!Katyayan!=-
Language                                 : English
Default                                  : Yes
Forced                                   : Yes



 
Category:Movies > Hollywood Dub
Lang:Hindi
Total Size:922.90 MB



:download:

|| Download This Movie Via Single Resumable Links Size: 923 MB ||

Direct-1 Google Drive | Direct-2 | Direct-3 |

Watch Online Click Here

Post a Comment

0 Comments