Crazy World Only 4 You

Sorry For The Inconvenience. If You are facing link dead or no google drive file access then inform us via comment

Latest Updates

Sunday, 20 May 2018

Chacha Vidhayak Hain Hamare (2018) Complete S01 720p AMZN WEB-DL DD-5.1 H264-NTb


Poster


iMDB
Imdb Picture Title: Chacha Vidhayak Hain Hamare
Year: 2018
Votes: 370
Rating: 8.2/10
Language: Hindi
Country: India
All Genres: Comedy
Plot Outline: Ronny's whole life is based on a lie. To the world he is the nephew of the local MLA and a youth leader who solves people's problems. But in reality, Ronny is a jobless 25 year old with no relation to the MLA who shares his surname. The show explores Ronny's adventures as he gets stuck in multiple situations because of this lie. He has two trusted sidekicks, Anwar and Kranti who don't know the truth either and consider Ronny their leader. Ronny is in love with Avantika but she is too busy obsessing about her ex to notice his feelings. His family is concerned about his future and is dismayed at his lack of interest in studying or getting a job. His sister who suspects Ronny is lying about something is constantly trying to get him into trouble with their parents. Ronny's trusted mentor Santosh Bhaiya is the only one who knows the truth and tries to help Ronny.
Director: Vikas Chandra

Produced By: Aliya Curmally,
Cast:
Venus Singh as Avantika Sharma 3 episodes, 2018
Neeraj Pandey as Journalist (2018) unknown episodes
Dherendra Kumar Tiwari as Bansi (2018) unknown episodes
Alka Amin as Amrita Pathak unknown episodes
Zakir Hussain as Rajesh Pathak unknown episodes
Zakir Khan as Rohit Pathak unknown episodes
Gaurav Sharma as Santosh unknown episodes
Vineet Sharma as Singham unknown episodes
Vyom Sharma as Anwar unknown episodes
Abhimanyu Singh as Ashwini Pathak unknown episodes



Details
Name:Chacha Vidhayak Hain Hamare (2018) Complete S01 720p AMZN WEB-DL DD-5 1 H264-NTb
Description:
Chacha Vidhayak Hain Hamare (2018) Complete S01 720p AMZN WEB-DL DD-5 1 H264-NTb

0f8003ebaa43dd5b3750841ab7f17b42.jpg

Format : Matroska

Format version : Version 4 / Version 2

File size : 775 MiB

Duration : 29mn 53s

Overall bit rate mode : Variable

Overall bit rate : 3 622 Kbps

Encoded date : UTC 2018-05-19 03:33:21

Writing application : mkvmerge v23.0.0 ('The Bride Said No') 64-bit

Writing library : libebml v1.3.6 + libmatroska v1.4.9

Video

ID : 1

Format : AVC

Format/Info : Advanced Video Codec

Format profile : High@L3.1

Format settings, CABAC : Yes

Format settings, ReFrames : 5 frames

Codec ID : V_MPEG4/ISO/AVC

Duration : 29mn 53s

Bit rate mode : Variable

Bit rate : 2 980 Kbps

Maximum bit rate : 4 500 Kbps

Width : 1 280 pixels

Height : 720 pixels

Display aspect ratio : 16:9

Frame rate mode : Constant

Frame rate : 25.000 fps

Color space : YUV

Chroma subsampling : 4:2:0

Bit depth : 8 bits

Scan type : Progressive

Bits/(Pixel*Frame) : 0.129

Stream size : 637 MiB (82%)

Default : Yes

Forced : No

Color range : Limited

Color primaries : BT.709

Transfer characteristics : BT.709

Matrix coefficients : BT.709

Audio

ID : 2

Format : E-AC-3

Format/Info : Audio Coding 3

Format settings, Endianness : Big

Codec ID : A_EAC3

Duration : 29mn 53s

Bit rate mode : Constant

Bit rate : 640 Kbps

Channel(s) : 6 channels

Channel positions : Front: L C R, Side: L R, LFE

Sampling rate : 48.0 KHz

Frame rate : 187.500 fps (256 spf)

Compression mode : Lossy

Stream size : 137 MiB (18%)

Language : Hindi

Default : Yes

Forced : No

Text

ID : 3

Format : UTF-8

Codec ID : S_TEXT/UTF8

Codec ID/Info : UTF-8 Plain Text

Duration : 28mn 5s

Bit rate : 74 bps

Count of elements : 488

Stream size : 15.3 KiB (0%)

Language : English

Default : No

Forced : No
 
c28df9af81ff77a727bdd31256cd1134.th.jpg e3f3a5df3db72b7fc1317f75c378854a.th.jpg 9b115cbdb6e9fff15a5ff8a3d1f25739.th.jpg e513328cbfcc3b4207776bc545ab5cdd.th.jpg ae3d10fda0d14d74bb66816c68a85fa8.th.png ad5443b157af5199a1f5bbff9737562b.th.png
Category:TV > Indian
Lang:Hindi
Total Size:5.01 GB



:download:

|| Download This Tv Show Via Single Resumable Links Size: 5.01 GB ||

Direct-1 Google Drive |

:download:

|| Download This Tv Show Via Single Resumable Links Size: 1.44 GB ||

Direct-1 Google Drive |

No comments:

Post a Comment