Crazy World Only 4 You

Sorry For The Inconvenience. If You are facing link dead or no google drive file access then inform us via comment

Latest Updates

Wednesday, 23 May 2018

Clear and Present Danger (1994) BRRip 720p Dual Audio [Hindi - English] DD2.0 - Msubs ~ Ranvijay


Poster


iMDB
Imdb Picture Title: Clear and Present Danger
Year: 1994
Runtime: 141 minutes
Votes: 74230
Rating: 6.9/10
Language: English
Country: USA
All Genres: Action, Crime, Drama, Thriller
Plot Outline: CIA Analyst Jack Ryan is drawn into an illegal war fought by the US government against a Colombian drug cartel.
Tagline: The war of drugs would lead him to the war of power.
Director: Phillip Noyce
Writing By: Tom Clancy,Donald Stewart,Steven Zaillian,John Milius,
Produced By: Lis Kern,Mace Neufeld,Robert Rehme,Ralph S. Singleton,
Music: James Horner
Cast:
Harrison Ford as Jack Ryan
Willem Dafoe as John Clark
Anne Archer as Cathy Muller Ryan
Joaquim de Almeida as Col. Felix Cortez
Henry Czerny as Robert Ritter
Harris Yulin as James Cutter
Donald Moffat as President Bennett
Miguel Sandoval as Ernesto Escobedo
Benjamin Bratt as Captain Ramirez
Raymond Cruz as Domingo Chavez


Details
Name:Clear and Present Danger (1994) BRRip 720p Dual Audio [Hindi - English] DD2.0 - Msubs ~ Ranvijay
Description:
Clear and Present Danger (1994) 720p Dual Audio [Hindi - English] DD2.0 - Msubs ~ Ranvijay 



Format : Matroska
Format version : Version 4 / Version 2
File size : 1.52 GiB
Duration : 2 h 21 min
Overall bit rate : 1 537 kb/s
Movie name : Clear and Present Danger (1994) 720p Dual Audio [Hindi - English] DD2.0 - Msubs ~ Ranvijay

Video
ID : 1
Format : AVC
Format/Info : Advanced Video Codec
Duration : 2 h 21 min
Bit rate : 1 208 kb/s
Width : 1 280 pixels
Height : 544 pixels
Display aspect ratio : 2.35:1
Frame rate mode : Constant
Frame rate : 23.976 (24000/1001) FPS
Stream size : 1.19 GiB (79%)
Title : ~Ranvijay~
Default : Yes
Forced : No

Audio #1
ID : 2
Format : AC-3
Format/Info : Audio Coding 3
Codec ID : A_AC3
Duration : 2 h 21 min
Bit rate mode : Constant
Bit rate : 224 kb/s
Channel(s) : 2 channels
Channel positions : Front: L R
Sampling rate : 48.0 kHz
Frame rate : 31.250 FPS (1536 SPF)
Bit depth : 16 bits
Compression mode : Lossy
Stream size : 226 MiB (15%)
Title : ~Ranvijay~
Language : Hindi
Service kind : Complete Main
Default : Yes
Forced : No

Audio #2
ID : 3
Format : AAC
Format/Info : Advanced Audio Codec
Format profile : LC
Codec ID : A_AAC-2
Duration : 2 h 21 min
Bit rate : 85.5 kb/s
Channel(s) : 2 channels
Channel positions : Front: L R
Sampling rate : 48.0 kHz
Frame rate : 46.875 FPS (1024 SPF)
Compression mode : Lossy
Delay relative to video : 9 ms
Stream size : 86.4 MiB (6%)
Title : ~Ranvijay~
Language : English
Default : No
Forced : No

Text #1
ID : 4
Format : PGS
Muxing mode : zlib
Codec ID : S_HDMV/PGS
Codec ID/Info : Picture based subtitle format used on BDs/HD-DVDs
Duration : 2 h 15 min
Bit rate : 23.7 kb/s
Count of elements : 2970
Stream size : 22.9 MiB (1%)
Title : ~Ranvijay~
Language : Hindi
Default : No
Forced : No

Text #2
ID : 5
Format : PGS
Muxing mode : zlib
Codec ID : S_HDMV/PGS
Codec ID/Info : Picture based subtitle format used on BDs/HD-DVDs
Duration : 2 h 14 min
Bit rate : 32.3 kb/s
Count of elements : 3138
Stream size : 31.2 MiB (2%)
Title : ~Ranvijay~
Language : English
Default : Yes
Forced : No 


70e7aad35c615d5f8eda413f7662200e.th.png dc4b8cf5932ea1460b8049520d9be450.th.png 1fbb06671ba7569fad39ef887af230ff.th.png 820c2fb2af7fd622c15d96a0d6250ce4.th.png f0cbbf2a1b5dbc1c704505f4024a3c99.th.png 4e258d96de84ff39a86855d39a293111.th.png e0a5a2b1e89d2a9d9a6d6d176f309d9e.th.png c78d941cf9aee781a461d903d04022de.th.png 9c9f7adec8909259c980869e7366210c.th.png c1eaf5df3cd52f6306fb53cf5863c117.th.png
Category:Movies > Hollywood Dub
Lang:Hindi
Total Size:1.52 GB



|| Download This Movie Via Single Resumable Links Size: 1.52 GB ||

Direct-1 Google Drive | Direct-2 | Direct-3 |

Watch Online Click Here

No comments:

Post a Comment