STAY WITH US

header ads

Curious George (2006) BluRay 720p x264 [Dual Audio] [Hindi DD 5.1 - Eng 2.0] AAC Esub -=!Katyayan!=-


Poster


iMDB
Imdb Picture Title: Curious George
Year: 2006
Runtime: 87 minutes
Votes: 13827
Rating: 6.5/10
Language: English
Country: USA, Germany
All Genres: Animation, Adventure, Comedy, Family
Plot Outline: The man with the yellow hat named Ted Shackleford works at a natural history museum that's fallen on hard times. The museum director's son wants to turn it into a parking lot, but Ted offers to bring back a mysterious idol from Africa that's guaranteed to pull in crowds. Unfortunately, the idol turns out to be three inches tall. But Ted accidentally brings back a lonely yet irrepressible monkey, soon dubbed George. They set off on a non-stop action, fun-filled journey through the wonders of the big city toward the warmth of true friendship. Written by Anthony Pereyra {hypersonic91@yahoo.com}
Tagline: Show Me The Monkey!
Director: Matthew O'Callaghan
Writing By: Ken Kaufman,Ken Kaufman,Mike Werb,Margret Rey,H.A. Rey,
Produced By: David Bernardi,Mary Alice Drumm,Ron Howard,David Kirschner,Bonne Radford,Jon Shapiro,Ken Tsumura,Jim Whitaker,
Music: Heitor Pereira
Cast:
Frank Welker as George
Will Ferrell as Ted - Man with the Yellow Hat
Shane Baumel as Kid
Timyra-Joi Beatty as Kid
Eugene Levy as Clovis
Christopher Chen as Kid
Jessie Flower as Kid
Dick Van Dyke as Mr. Bloomsberry
Alexander Gould as Kid
Terrence Hardy Jr. as Kid
Trailers:
Curious George
Curious George
Curious George
Curious George

Details
Name:Curious George (2006) BluRay 720p x264 [Dual Audio] [Hindi DD 5.1 - Eng 2.0] AAC Esub -=!Katyay...
Description:
Curious George (2006) BluRay 720p x264 [Dual Audio] [Hindi DD 5.1 - Eng 2.0] AAC Esub -=!Katyayan!=-

 

Format                                   : Matroska
Format version                           : Version 4 / Version 2
File size                                : 817 MiB
Duration                                 : 1 h 27 min
Overall bit rate                         : 1 308 kb/s
Movie name                               : Curious George (2006) BluRay 720p x264 [Dual Audio] [Hindi DD 5.1 - Eng 2.0] AAC Esub -=!Katyayan!=-
Encoded date                             : UTC 2018-05-16 18:59:47
Writing application                      : mkvmerge v19.0.0 ('Brave Captain') 32-bit
Writing library                          : libebml v1.3.5 + libmatroska v1.4.8

Video
ID                                       : 1
Format                                   : AVC
Format/Info                              : Advanced Video Codec
Format profile                           : High@L4.1
Format settings                          : CABAC / 4 Ref Frames
Format settings, CABAC                   : Yes
Format settings, RefFrames               : 4 frames
Codec ID                                 : V_MPEG4/ISO/AVC
Duration                                 : 1 h 27 min
Bit rate                                 : 1 020 kb/s
Width                                    : 1 280 pixels
Height                                   : 696 pixels
Display aspect ratio                     : 1.85:1
Frame rate mode                          : Constant
Frame rate                               : 23.976 (24000/1001) FPS
Original frame rate                      : 23.976 (23976/1000) FPS
Color space                              : YUV
Chroma subsampling                       : 4:2:0
Bit depth                                : 8 bits
Scan type                                : Progressive
Bits/(Pixel*Frame)                       : 0.048
Stream size                              : 637 MiB (78%)
Title                                    : Curious George (2006) BluRay 720p x264 [Dual Audio] [Hindi DD 5.1 - Eng 2.0] AAC Esub -=!Katyayan!=-
Writing library                          : x264 core 123 r2189 35cf912
Language                                 : English
Default                                  : Yes
Forced                                   : No
Color range                              : Limited
Color primaries                          : BT.709
Matrix coefficients                      : BT.709

Audio #1
ID                                       : 2
Format                                   : AAC
Format/Info                              : Advanced Audio Codec
Format profile                           : LC
Codec ID                                 : A_AAC-2
Duration                                 : 1 h 27 min
Bit rate                                 : 192 kb/s
Channel(s)                               : 6 channels
Channel positions                        : Front: L C R, Side: L R, LFE
Sampling rate                            : 48.0 kHz
Frame rate                               : 46.875 FPS (1024 SPF)
Compression mode                         : Lossy
Stream size                              : 120 MiB (15%)
Title                                    : -=!Katyayan!=-
Language                                 : Hindi
Default                                  : Yes
Forced                                   : Yes

Audio #2
ID                                       : 3
Format                                   : AAC
Format/Info                              : Advanced Audio Codec
Format profile                           : LC
Codec ID                                 : A_AAC-2
Duration                                 : 1 h 27 min
Bit rate                                 : 93.5 kb/s
Channel(s)                               : 2 channels
Channel positions                        : Front: L R
Sampling rate                            : 48.0 kHz
Frame rate                               : 46.875 FPS (1024 SPF)
Compression mode                         : Lossy
Stream size                              : 58.4 MiB (7%)
Title                                    : -=!Katyayan!=-
Language                                 : English
Default                                  : No
Forced                                   : No

Text
ID                                       : 4
Format                                   : UTF-8
Codec ID                                 : S_TEXT/UTF8
Codec ID/Info                            : UTF-8 Plain Text
Duration                                 : 1 h 17 min
Bit rate                                 : 78 b/s
Count of elements                        : 1219
Stream size                              : 44.6 KiB (0%)
Title                                    : -=!Katyayan!=-
Language                                 : English
Default                                  : Yes
Forced                                   : Yes

 

Category:Movies > Hollywood Dub
Lang:Hindi
Total Size:817.53 MB



|| Download This Movie Via Single Resumable Links Size: 817 MB ||

Direct-1 Google Drive | Direct-2 | Direct-3 |

Watch Online Click Here

Post a Comment

0 Comments