Crazy World Only 4 You

Sorry For The Inconvenience. If You are facing link dead or no google drive file access then inform us via comment

Latest Updates

Wednesday, 9 May 2018

Dante's Peak (1997) BluRay 720p x264 Dual Audio [Hindi DD2.0 - English DD5.1] - Esub ~ Ranvijay


Poster
0defff23b5ef3a1c55d46299e2d8a8f4.jpg


iMDB
Imdb Picture Title: Dante's Peak
Year: 1997
Runtime: 108 minutes
Votes: 69528
Rating: 5.9/10
Language: English
Country: USA
All Genres: Action, Adventure, Thriller
Plot Outline: Volcanologist Harry Dalton and mayor Rachel Wando of Dante's Peak try to convince the city council and the other volcanologists that the volcano right above Dante's peak is indeed dangerous. People's safety is being set against economical interests. Written by Rune Dahl Fitjar <rfitjar@online.no>
Tagline: The pressure is building...
Director: Roger Donaldson
Writing By: Leslie Bohem,
Produced By: Ilona Herzberg,Staci A. Hunter,Gale Anne Hurd,Geoff Murphy,Marliese Schneider,Joseph Singer,
Music: John Frizzell
Cast:
Pierce Brosnan as Harry Dalton
Linda Hamilton as Rachel Wando
Jamie Renée Smith as Lauren Wando
Jeremy Foley as Graham Wando
Elizabeth Hoffman as Ruth
Charles Hallahan as Paul Dreyfus
Grant Heslov as Greg
Kirk Trutner as Terry Furlong
Arabella Field as Nancy
Tzi Ma as Stan
Trailers:
Dante's Peak

Details
Name:Dante's Peak (1997) BluRay 720p x264 Dual Audio [Hindi DD2.0 - English DD5.1] - Esub ~ Ranvijay
Description:
Dante's Peak (1997) 720p BluRay x264 Dual Audio [Hindi DD2.0 - English DD5.1] - Esub ~ Ranvijay 


Format                                   : Matroska
Format version                           : Version 4 / Version 2
File size                                : 1.48 GiB
Duration                                 : 1 h 48 min
Overall bit rate                         : 1 950 kb/s
Movie name                               : Dante's Peak (1997) 720p BluRay x264 Dual Audio [Hindi DD2.0 - English DD5.1] - Esub ~ Ranvijay

Video
ID                                       : 1
Format                                   : AVC
Duration                                 : 1 h 48 min
Bit rate                                 : 1 500 kb/s
Width                                    : 1 280 pixels
Height                                   : 544 pixels
Display aspect ratio                     : 2.35:1
Frame rate mode                          : Constant
Frame rate                               : 23.976 (24000/1001) FPS
Original frame rate                      : 23.976 (23976/1000) FPS
Stream size                              : 1.14 GiB (77%)
Title                                    : ~Ranvijay~
Default                                  : Yes
Forced                                   : No

Audio #1
ID                                       : 2
Format                                   : AC-3
Format/Info                              : Audio Coding 3
Codec ID                                 : A_AC3
Duration                                 : 1 h 48 min
Bit rate mode                            : Constant
Bit rate                                 : 224 kb/s
Channel(s)                               : 2 channels
Channel positions                        : Front: L R
Sampling rate                            : 48.0 kHz
Frame rate                               : 31.250 FPS (1536 SPF)
Bit depth                                : 16 bits
Compression mode                         : Lossy
Stream size                              : 174 MiB (11%)
Title                                    : ~Ranvijay~
Language                                 : Hindi
Service kind                             : Complete Main
Default                                  : Yes
Forced                                   : No

Audio #2
ID                                       : 3
Format                                   : AAC
Format/Info                              : Advanced Audio Codec
Format profile                           : LC
Codec ID                                 : A_AAC-2
Duration                                 : 1 h 48 min
Bit rate                                 : 224 kb/s
Channel(s)                               : 6 channels
Channel positions                        : Front: L C R, Side: L R, LFE
Sampling rate                            : 48.0 kHz
Frame rate                               : 46.875 FPS (1024 SPF)
Compression mode                         : Lossy
Stream size                              : 174 MiB (11%)
Title                                    : ~Ranvijay~
Language                                 : English
Default                                  : No
Forced                                   : No

Text
ID                                       : 4
Format                                   : UTF-8
Codec ID                                 : S_TEXT/UTF8
Codec ID/Info                            : UTF-8 Plain Text
Duration                                 : 1 h 36 min
Bit rate                                 : 62 b/s
Count of elements                        : 1231
Stream size                              : 44.1 KiB (0%)
Title                                    : ~Ranvijay~
Language                                 : English
Default                                  : Yes
Forced                                   : No 
3d5b7d0c10198f74f40fedf97f89588f.th.png c665461f4e4085e2dde2f404bf74a78e.th.png 3b027489d07b4f19fcf6d285d68dbb75.th.png 156d239cf6dabb2eec027932e27f3fa7.th.png d2615ada17d129c311300a5e82134e68.th.png d345a6274e03c94fc6949f5d4437cae0.th.png 8d0dc6e5761f7606e442477f1ad4fd2e.th.png cc3bab1d59d2a17919b60e564a380bba.th.png
Category:Movies > Hollywood Dub
Lang:Hindi
Total Size:1.48 GB



|| Download This Movie Via Single Resumable Links Size: 1.48 GB ||

Direct-1 Google Drive | Direct-2 | Direct-3 |

Watch Online Click Here

No comments:

Post a Comment