Crazy World Only 4 You

Sorry For The Inconvenience. If You are facing link dead or no google drive file access then inform us via comment

Latest Updates

Friday, 11 May 2018

Hate Story IV (2018) Hindi 720p WEB-DL x264 AAC 2.0 - Esub ~ Ranvijay


Poster


iMDB
Imdb Picture Title: Hate Story IV
Year: 2018
Language: Hindi
Country: India
All Genres: Drama, Thriller
Plot Outline: The fourth installment of the 'Hate Story' franchise.
Director: Vishal Pandya
Writing By: Vishal Pandya,Vishal Pandya,Sameer Arora,Milap Zaveri,
Produced By: Vivek Bhatnagar,Sam Bhattacharjee,Bhushan Kumar,Krishan Kumar,
Music: Inder Bawra Sunny Bawra
Cast:
Urvashi Rautela as Tasha
Daniel Eghan as Rich Hotel Guest
Vivan Bhatena as
Lee Nicholas Harris as Police officer 401
Zenia Starr as
Gulshan Grover as Vikram Kurana
Linda E Greenwood as Party Guest
Atul Sharma as Millionaire Hotel Guest
Anna Tilbury as Rich Hotel Guest
Rita Siddiqui as Monica


Details
Name:Hate Story IV (2018) Hindi 720p WEB-DL x264 AAC 2.0 - Esub ~ Ranvijay
Description:
Hate Story 4 2018 720p WEB-HD x264 AAC - Ranvijay



Source :- 1080p @ DTONE
Format                                   : Matroska
Format version                           : Version 4 / Version 2
File size                                : 1.57 GiB
Duration                                 : 2 h 7 min
Overall bit rate                         : 1 771 kb/s
Movie name                               : Hate Story 4 2018 720p WEB-DL x264 AAC 2.0 - Esub ~ Ranvijay


Video
ID                                       : 1
Format                                   : AVC
Format/Info                              : Advanced Video Codec
Duration                                 : 2 h 7 min
Bit rate                                 : 1 460 kb/s
Width                                    : 1 280 pixels
Height                                   : 544 pixels
Display aspect ratio                     : 2.35:1
Frame rate mode                          : Constant
Frame rate                               : 23.976 (23976/1000) FPS
Color space                              : YUV
Chroma subsampling                       : 4:2:0
Bit depth                                : 8 bits
Scan type                                : Progressive
Bits/(Pixel*Frame)                       : 0.087
Stream size                              : 1.30 GiB (83%)
Title                                    : ~Ranvijay~
Default                                  : Yes
Forced                                   : No

Audio
ID                                       : 2
Format                                   : AAC
Format/Info                              : Advanced Audio Codec
Format profile                           : LC
Codec ID                                 : A_AAC-2
Duration                                 : 2 h 7 min
Bit rate                                 : 301 kb/s
Channel(s)                               : 2 channels
Channel positions                        : Front: L R
Sampling rate                            : 48.0 kHz
Frame rate                               : 46.875 FPS (1024 SPF)
Compression mode                         : Lossy
Delay relative to video                  : 117 ms
Stream size                              : 273 MiB (17%)
Title                                    : ~Ranvijay~
Language                                 : Hindi
Default                                  : Yes
Forced                                   : No

Text
ID                                       : 3
Format                                   : UTF-8
Codec ID                                 : S_TEXT/UTF8
Codec ID/Info                            : UTF-8 Plain Text
Duration                                 : 2 h 1 min
Bit rate                                 : 55 b/s
Count of elements                        : 1526
Stream size                              : 49.3 KiB (0%)
Title                                    : ~Ranvijay~
Language                                 : English
Default                                  : Yes
Forced                                   : No


 
 
 
 
Category:Movies > Bollywood
Lang:Hindi
Total Size:1.57 GB



|| Download This Movie Via Single Resumable Links Size: 1.57 GB ||

Direct-1 Google Drive | Direct-2 | Direct-3 |

Watch Online Click Here

No comments:

Post a Comment