Crazy World Only 4 You

Sorry For The Inconvenience. If You are facing link dead or no google drive file access then inform us via comment

Latest Updates

Thursday, 31 May 2018

Hello (2017) Hindi Dub 720p UntoucheD WEB-HD - AVC - AAC


Poster


iMDB
Imdb Picture Title: Hello
Year: 2017
Runtime: 131 minutes
Votes: 298
Rating: 7.3/10
Language: Telugu
Country: India
All Genres: Action, Romance
Plot Outline: Avinash, in his childhood meets a girl and believes that she is his soul mate and patiently waits for her.
Director: Vikram K. Kumar
Writing By: Vikram K. Kumar,Mukund Pandey,
Produced By: Nagarjuna Akkineni,D. Supriya,
Music: Anoop Rubens
Cast:
Akhil Akkineni as Avinash
Kalyani Priyadarshan as Priya
Jagapathi Babu as Prakash
Ramya Krishnan as Saru
Ajay as Rishi
Mikhail Gandhi as Seenu
Praveen as Uber Driver
Vennela Kishore as Groom
Satya Krishnan as Priya's mom
Krishnudu as Food Vendor

Details
Name:Hello (2017) Hindi Dub 720p UntoucheD WEB-HD - AVC - AAC
Description:
Hello (2017) Hindi Dub 720p UntoucheD WEB-HD - AVC - AAC


Video
ID                                      : 1
Format                                  : AVC
Format/Info                              : Advanced Video Codec
Format profile                          : Main@L3.1
Format settings                          : CABAC / 1 Ref Frames
Format settings, CABAC                  : Yes
Format settings, RefFrames              : 1 frame
Format settings, GOP                    : M=1, N=25
Codec ID                                : avc1
Codec ID/Info                            : Advanced Video Coding
Duration                                : 2 h 0 min
Bit rate mode                            : Constant
Bit rate                                : 2 000 kb/s
Width                                    : 1 280 pixels
Height                                  : 720 pixels
Display aspect ratio                    : 16:9
Frame rate mode                          : Constant
Frame rate                              : 25.000 FPS
Color space                              : YUV
Chroma subsampling                      : 4:2:0
Bit depth                                : 8 bits
Scan type                                : Progressive
Bits/(Pixel*Frame)                      : 0.087
Stream size                              : 1.69 GiB (97%)

Audio
ID                                      : 2
Format                                  : AAC
Format/Info                              : Advanced Audio Codec
Format profile                          : LC
Codec ID                                : mp4a-40-2
Duration                                : 2 h 0 min
Bit rate mode                            : Constant
Bit rate                                : 61.4 kb/s
Channel(s)                              : 2 channels
Channel positions                        : Front: L R
Sampling rate                            : 48.0 kHz
Frame rate                              : 46.875 FPS (1024 SPF)
Compression mode                        : Lossy
Stream size                              : 53.1 MiB (3%)
Default                                  : Yes
Alternate group                          : 1

b81d3d4cca168ca677016cc8ccde8372.jpg
Category:Movies > South Dub
Lang:Hindi
Total Size:1..75 GB



|| Download This Movie Via Single Resumable Links Size: 1.75 GB ||

Direct-1 Google Drive | Direct-2 | Direct-3 |

Watch Online Click Here

No comments:

Post a Comment