Crazy World Only 4 You

Sorry For The Inconvenience. If You are facing link dead or no google drive file access then inform us via comment

Latest Updates

Friday, 11 May 2018

Hichki (2018) Hindi 720p BluRay x264 AC3 DD-5.1 - Esub ~Ranvijay


Poster
Hichki-2018-By--Sworld4ufree.Blogspot.Com.jpg


iMDB
Imdb Picture Title: Hichki
Year: 2018
Runtime: 116 minutes
Votes: 50
Rating: 7.5/10
Language: Hindi, English
Country: India
All Genres: Comedy, Drama
Plot Outline: Hichki presents a positive and inspiring story about a woman who turns her biggest weakness into her biggest strength.
Director: Siddharth Malhotra
Writing By: Anckur Chaudhry,Siddharth Malhotra,Ambar Hadap,Ganesh Pandit,Anckur Chaudhry,
Produced By: Aditya Chopra,Bharat Rawail,Maneesh Sharma,Sanjay Shivalkar,Aashish Singh,Amit Tomar,
Music: Jasleen Royal Hitesh Sonik
Cast:
Rani Mukerji as Naina Mathur
Supriya Pilgaonkar as
Ivan Rodrigues as Principal
Asif Basra as
Shivkumar Subramaniam as
Harsh Mayar as Aatish
Kunal Shiinde as Supporting
Suprio Bose as Senior Male Teacher
Trailers:
Hichki Trailer

Details
Name:Hichki (2018) Hindi 720p BluRay x264 AC3 DD-5.1 - Esub ~Ranvijay
Description:
Hichki (2018) Hindi 720p BluRay x264 AC3 DD-5.1 - Esub ~Ranvijay
 
Hichki-2018-By--Sworld4ufree.Blogspot.Com.jpg


 Source :- Hon3y
Format                                   : Matroska
Format version                           : Version 4 / Version 2
File size                                : 1.50 GiB
Duration                                 : 1 h 57 min
Overall bit rate                         : 1 829 kb/s
Movie name                               : Hichki (2018) Hindi 720p BluRay x264 AC3 - Esub ~Ranvijay

Video
ID                                       : 1
Format                                   : AVC
Format/Info                              : Advanced Video Codec
Duration                                 : 1 h 57 min
Bit rate                                 : 1 600 kb/s
Width                                    : 1 280 pixels
Height                                   : 534 pixels
Display aspect ratio                     : 2.40:1
Original display aspect ratio            : 2.40:1
Frame rate mode                          : Constant
Frame rate                               : 24.000 FPS
Color space                              : YUV
Chroma subsampling                       : 4:2:0
Bit depth                                : 8 bits
Scan type                                : Progressive
Bits/(Pixel*Frame)                       : 0.098
Stream size                              : 1.30 GiB (87%)
Title                                    : ~Ranvijay~
Default                                  : Yes
Forced                                   : No

Audio
ID                                       : 2
Format                                   : AC-3
Format/Info                              : Audio Coding 3
Codec ID                                 : A_AC3
Duration                                 : 1 h 57 min
Bit rate mode                            : Constant
Bit rate                                 : 224 kb/s
Channel(s)                               : 6 channels
Channel positions                        : Front: L C R, Side: L R, LFE
Sampling rate                            : 48.0 kHz
Frame rate                               : 31.250 FPS (1536 SPF)
Bit depth                                : 16 bits
Compression mode                         : Lossy
Delay relative to video                  : -5 ms
Stream size                              : 188 MiB (12%)
Title                                    : ~Ranvijay~
Language                                 : Hindi
Service kind                             : Complete Main
Default                                  : Yes
Forced                                   : No

Text
ID                                       : 3
Format                                   : PGS
Muxing mode                              : zlib
Codec ID                                 : S_HDMV/PGS
Codec ID/Info                            : Picture based subtitle format used on BDs/HD-DVDs
Duration                                 : 1 h 51 min
Bit rate                                 : 30.3 kb/s
Count of elements                        : 2792
Stream size                              : 24.2 MiB (2%)
Title                                    : ~Ranvijay~
Language                                 : English
Default                                  : Yes
Forced                                   : No

Menu
00:00:00.000                             : :Chapter 1
00:01:52.333                             : :Chapter 2
00:04:35.666                             : :Chapter 3
00:06:49.541                             : :Chapter 4
00:12:32.333                             : :Chapter 5
00:19:50.541                             : :Chapter 6
00:28:04.541                             : :Chapter 7
00:33:05.833                             : :Chapter 8
00:36:43.708                             : :Chapter 9
00:45:10.333                             : :Chapter 10
00:53:09.958                             : :Chapter 11
00:58:55.833                             : :Chapter 12
01:05:12.041                             : :Chapter 13
01:08:08.833                             : :Chapter 14
01:16:45.916                             : :Chapter 15
01:25:30.166                             : :Chapter 16
01:30:20.541                             : :Chapter 17
01:32:18.833                             : :Chapter 18
01:40:51.166                             : :Chapter 19
01:51:32.333                             : :Chapter 20
01:54:05.541                             : :Chapter 21

a2f9cd7bdf641475a4252ea31c97fb0a.th.png 9f90fa25e2a4bc1b701cedc40ea97d35.th.png 10a3e43ac34411654949074b1f45d603.th.png aff5ae2c12461d35fcfa981d336590f1.th.png 74e3371df6ab3a9830b066ead5e41a80.th.png 4eff0a3c556e551e6672f9e1b0a8e7e5.th.png 52524aaa50b14d2725d2883f76d5b5de.th.png 4f36c9a40474c4d36b719425061b486c.th.png
Category:Movies > Bollywood
Lang:Hindi
Total Size:1.53 GB



|| Download This Movie Via Single Resumable Links Size: 1.50 GB ||

Direct-1 Google Drive | Direct-2 | Direct-3 |

Watch Online Click Here

No comments:

Post a Comment