Crazy World Only 4 You

Sorry For The Inconvenience. If You are facing link dead or no google drive file access then inform us via comment

Latest Updates

Wednesday, 2 May 2018

Hush (1998) BluRay 720p x264 Dual Audio [Hindi + Eng] Esubs Exclusive By Maher


Poster
533968c0de38a6a58739beeca8b23b39.jpg


iMDB
Imdb Picture Title: Hush
Year: 1998
Runtime: 96 minutes
Votes: 8227
Rating: 5.3/10
Language: English
Country: USA
All Genres: Drama, Thriller
Plot Outline: Helen is the young girlfriend of good-looking Jackson Baring. When Helen gets pregnant and marries Jackson, they decide to move to his family farm, Kilronan, and have a baby there. But his ...
Tagline: Don't Breathe A Word
Director: Jonathan Darby
Writing By: Jonathan Darby,Jonathan Darby,Jane Rusconi,
Produced By: Ginny Nugent,Douglas Wick,
Music: Christopher Young
Cast:
Jessica Lange as Martha Baring
Gwyneth Paltrow as Helen Baring
Johnathon Schaech as Jackson Baring
Nina Foch as Alice Baring
Debi Mazar as Lisa
Kaiulani Lee as Sister O'Shaughnessy
David Thornton as Gavin
Hal Holbrook as Dr. Franklin Hill
Richard Lineback as Hal Bentall
Richard Kohn as Clayton Richards
Trailers:
Hush
Hush
Details
Name:Hush (1998) BluRay 720p x264 Dual Audio [Hindi + Eng] Esubs Exclusive By Maher
Description:
Hush 1998 x264 720p Dual Audio [Hindi + Eng] BluRay Esubs Exclusive By Maher 

-= Don't Breathe A Word =-

-=Exclusive By -=MAHER=-


Format                                   : Matroska
Format version                           : Version 4 / Version 2
File size                                : 1.28 GiB
Duration                                 : 1 h 35 min
Overall bit rate                         : 1 916 kb/s
Encoded date                             : UTC 2018-05-01 10:20:06
Writing application                      : mkvmerge v9.7.1 ('Pandemonium') 64bit
Writing library                          : libebml v1.3.4 + libmatroska v1.4.5

Video
ID                                       : 1
Format                                   : AVC
Format/Info                              : Advanced Video Codec
Format profile                           : High@L4.1
Format settings                          : CABAC / 4 Ref Frames
Format settings, CABAC                   : Yes
Format settings, RefFrames               : 4 frames
Codec ID                                 : V_MPEG4/ISO/AVC
Duration                                 : 1 h 35 min
Bit rate                                 : 1 500 kb/s
Width                                    : 1 280 pixels
Height                                   : 694 pixels
Display aspect ratio                     : 1.85:1
Frame rate mode                          : Constant
Frame rate                               : 23.976 (23976/1000) FPS
Color space                              : YUV
Chroma subsampling                       : 4:2:0
Bit depth                                : 8 bits
Scan type                                : Progressive
Bits/(Pixel*Frame)                       : 0.070
Stream size                              : 1.00 GiB (78%)
Writing library                          : x264 core 148 r2638M 7599210
Default                                  : Yes
Forced                                   : No

Audio #1
ID                                       : 2
Format                                   : AAC
Format/Info                              : Advanced Audio Codec
Format profile                           : LC
Codec ID                                 : A_AAC-2
Duration                                 : 1 h 35 min
Bit rate                                 : 224 kb/s
Channel(s)                               : 6 channels
Channel positions                        : Front: L C R, Side: L R, LFE
Sampling rate                            : 48.0 kHz
Frame rate                               : 46.875 FPS (1024 SPF)
Compression mode                         : Lossy
Stream size                              : 154 MiB (12%)
Language                                 : English
Default                                  : No
Forced                                   : No

Audio #2
ID                                       : 3
Format                                   : AAC
Format/Info                              : Advanced Audio Codec
Format profile                           : LC
Codec ID                                 : A_AAC-2
Duration                                 : 1 h 35 min
Bit rate                                 : 192 kb/s
Channel(s)                               : 2 channels
Channel positions                        : Front: L R
Sampling rate                            : 48.0 kHz
Frame rate                               : 46.875 FPS (1024 SPF)
Compression mode                         : Lossy
Stream size                              : 130 MiB (10%)
Title                                    : By-MAHER
Language                                 : Hindi
Default                                  : Yes
Forced                                   : Yes

Text
ID                                       : 4
Format                                   : UTF-8
Codec ID                                 : S_TEXT/UTF8
Codec ID/Info                            : UTF-8 Plain Text
Duration                                 : 1 h 32 min
Bit rate                                 : 60 b/s
Count of elements                        : 1370
Stream size                              : 41.1 KiB (0%)
Default                                  : Yes
Forced                                   : No

Category:Movies > Hollywood Dub
Lang:Hindi
Total Size:1.31 GB



|| Download This Movie Via Single Resumable Links Size: 1.28 GB ||

Direct-1 Google Drive | Direct-2 | Direct-3 |

Watch Online Click Here

No comments:

Post a Comment