Crazy World Only 4 You

Sorry For The Inconvenience. If You are facing link dead or no google drive file access then inform us via comment

Latest Updates

Tuesday, 15 May 2018

Insidious The Last Key 2018 BluRay 720p x264 {Dual Audio} [Hindi DD 5.1 - Eng 2.0] AAC Esub -=!Katyayan!=-


Poster


iMDB
Imdb Picture Title: Insidious: The Last Key
Year: 2018
Runtime: 103 minutes
Votes: 1008
Rating: 6.3/10
Language: English
Country: USA, Canada
All Genres: Horror, Mystery, Thriller
Plot Outline: Parapsychologist Dr. Elise Rainier faces her most fearsome and personal haunting yet - in her own family home.
Tagline: Fear comes home.
Director: Adam Robitel
Writing By: Leigh Whannell,Leigh Whannell,
Produced By: Laura Altmann,Jason Blum,Bailey Conway,Phillip Dawe,Brian Kavanaugh-Jones,Charles Layton,Rick Osako,Oren Peli,Couper Samuelson,Steven Schneider,Jeanette Volturno,James Wan,Leigh Whannell,Sandra Yee Ling,
Music: Joseph Bishara
Cast:
Lin Shaye as Elise Rainier
Leigh Whannell as Specs
Angus Sampson as Tucker
Kirk Acevedo as Ted Garza
Caitlin Gerard as Imogen Rainier
Spencer Locke as Melissa Rainier
Josh Stewart as Gerald Rainier
Tessa Ferrer as Audrey Rainier
Aleque Reid as Anna
Ava Kolker as Young Elise Rainier
Trailers:
International Trailer
Official Trailer
Details
Name:Insidious The Last Key (2018) BluRay 720p x264 {Dual Audio} [Hindi DD 5.1 - Eng 2.0] AAC Esub -...
Description:
Insidious The Last Key 2018 BluRay 720p x264 {Dual Audio} [Hindi DD 5.1 - Eng 2.0] AAC Esub -=!Katyayan!=-

 

Thanks To Mahesh @ Rainbow (Awesome Work Bro)

Lip To Lip Sync Audio

Format                                   : Matroska
Format version                           : Version 4 / Version 2
File size                                : 629 MiB
Duration                                 : 1 h 43 min
Overall bit rate                         : 850 kb/s
Movie name                               : Insidious: The Last Key 2018 BluRay 720p x264 {Dual Audio} [Hindi DD 5.1 - Eng 2.0] AAC Esub -=!Katyayan!=-

Video
ID                                       : 1
Format                                   : AVC
Format/Info                              : Advanced Video Codec
Format profile                           : Main@L3.1
Format settings                          : CABAC / 3 Ref Frames
Format settings, CABAC                   : Yes
Format settings, RefFrames               : 3 frames
Codec ID                                 : V_MPEG4/ISO/AVC
Duration                                 : 1 h 43 min
Bit rate                                 : 592 kb/s
Width                                    : 1 280 pixels
Height                                   : 536 pixels
Display aspect ratio                     : 2.40:1
Frame rate mode                          : Constant
Frame rate                               : 23.976 (24000/1001) FPS
Color space                              : YUV
Chroma subsampling                       : 4:2:0
Bit depth                                : 8 bits
Scan type                                : Progressive
Bits/(Pixel*Frame)                       : 0.036
Stream size                              : 438 MiB (70%)
Title                                    : Insidious: The Last Key 2018 BluRay 720p x264 {Dual Audio} [Hindi DD 5.1 - Eng 2.0] AAC Esub -=!Katyayan!=-
Language                                 : English
Default                                  : Yes
Forced                                   : No
Color range                              : Limited
Color primaries                          : BT.709
Transfer characteristics                 : BT.709
Matrix coefficients                      : BT.709

Audio #1
ID                                       : 2
Format                                   : AAC
Format/Info                              : Advanced Audio Codec
Format profile                           : LC
Codec ID                                 : A_AAC-2
Duration                                 : 1 h 43 min
Bit rate                                 : 192 kb/s
Channel(s)                               : 6 channels
Channel positions                        : Front: L C R, Side: L R, LFE
Sampling rate                            : 48.0 kHz
Frame rate                               : 46.875 FPS (1024 SPF)
Compression mode                         : Lossy
Delay relative to video                  : 11 s 500 ms
Stream size                              : 142 MiB (23%)
Title                                    : -=!Katyayan!=-
Language                                 : Hindi
Default                                  : Yes
Forced                                   : Yes

Audio #2
ID                                       : 3
Format                                   : AAC
Format/Info                              : Advanced Audio Codec
Format profile                           : HE-AAC / LC
Format settings                          : Explicit
Codec ID                                 : A_AAC-2
Duration                                 : 1 h 43 min
Bit rate                                 : 64.0 kb/s
Channel(s)                               : 2 channels
Channel positions                        : Front: L R
Sampling rate                            : 48.0 kHz / 24.0 kHz
Frame rate                               : 23.438 FPS (1024 SPF)
Compression mode                         : Lossy
Delay relative to video                  : 31 ms
Stream size                              : 47.3 MiB (8%)
Title                                    : -=!Katyayan!=-
Language                                 : English
Default                                  : No
Forced                                   : No

Text
ID                                       : 4
Format                                   : UTF-8
Codec ID                                 : S_TEXT/UTF8
Codec ID/Info                            : UTF-8 Plain Text
Duration                                 : 1 h 36 min
Bit rate                                 : 38 b/s
Count of elements                        : 833
Stream size                              : 27.5 KiB (0%)
Title                                    : -=!Katyayan!=-
Language                                 : English
Default                                  : Yes
Forced                                   : Yes



 
Category:Movies > Hollywood Dub
Lang:Hindi
Total Size:629.03 MB




|| Download This Movie Via Single Resumable Links Size: 629 MB ||

Direct-1 Google Drive | Direct-2 | Direct-3 |

Watch Online Click Here

No comments:

Post a Comment