Crazy World Only 4 You

Sorry For The Inconvenience. If You are facing link dead or no google drive file access then inform us via comment

Latest Updates

Wednesday, 9 May 2018

Its Entertainment (2014) Hindi BluRay 720p x264 AC3 - 5.1 - ESubs - Mafiaking - Team TellyTNT


Poster
d0a861e72a38fafc85c3f59cc58047ee.jpg


iMDB
Imdb Picture Original Title: It's Entertainment
Title: Entertainment
Year: 2014
Runtime: 140 minutes
Votes: 5976
Rating: 4.7/10
Language: Hindi
Country: India
All Genres: Action, Comedy, Drama
Plot Outline: Akhil (Akshay Kumar) finds out that he is the heir of 3000 crore rupees as he and his mother were abandoned by his diamond baron father (Panna Laal Johari) who is now dead. However, his ...
Director: Sajid
Farhad Samji
Writing By: Sajid,Farhad Samji,K. Subhash,
Produced By: Chandru Bakhtiani,Dhaval Gada,Kushal Gada,Narender Jani,Reshmaa Kadakia,Kulthep Narula,Jay Shewakramani,Prakash Talreja,Kumar Sadhuram Taurani,Ramesh Sadhuram Taurani,Varsha Taurani,
Music: Sachin Sanghvi Jigar Saraiya
Plot:
Akhil (Akshay Kumar) finds out that he is the heir of 3000 crore rupees as he and his mother were abandoned by his diamond baron father (Panna Laal Johari) who is now dead. However, his life goes Topsy-turvy when he learns that the empire goes to entertainment (a dog).
- Written by Ajit Tiwari
Cast:
Akshay Kumar as Akhil Lokhande
Tamannaah Bhatia as Saakshi
Johnny Lever as Habibullah Shiekh
Prakash Raj as Karan
Sonu Sood as Arjun
Krishna Abhishek as Jugnoo
Mithun Chakraborty as Saakshi's Father (Special Appearance)
Dalip Tahil as Pannalal Johri (Special Appearance)
Vrajesh Hirjee as NRI Groom (Special Appearance)
Riteish Deshmukh as Teleshopping Host (Guest Appearance)


Details
Name:Its Entertainment (2014) Hindi 720p BluRay x264 AC3 - 5.1 - ESubs - Mafiaking - Team TellyTNT
Description:
Entertainment (2014) - 720p - Blu-Ray - Hindi - x264 - AC3 - 5.1 - ESubs - Mafiaking - Team TellyTNT

d0a861e72a38fafc85c3f59cc58047ee.jpg

=== NFO ===

Format                                   : Matroska
Format version                           : Version 4 / Version 2
File size                                : 1.09 GiB
Duration                                 : 2h 19mn
Overall bit rate                         : 1 126 Kbps
Movie name                               : Entertainment (2014) - 720p - Blu-Ray - Hindi - x264 - AC3 - 5.1 - ESubs - Mafiaking - Team TellyTNT
Encoded date                             : UTC 2014-10-17 18:57:22
Writing application                      : mkvmerge v7.0.0 ('Where We Going') 64bit built on Jun  9 2014 15:16:27
Writing library                          : libebml v1.3.0 + libmatroska v1.4.1


Video
ID                                       : 1
Format                                   : AVC
Format/Info                              : Advanced Video Codec
Format profile                           : High@L4.1
Format settings, CABAC                   : Yes
Format settings, ReFrames                : 4 frames
Codec ID                                 : V_MPEG4/ISO/AVC
Duration                                 : 2h 19mn
Bit rate                                 : 900 Kbps
Width                                    : 1 280 pixels
Height                                   : 544 pixels
Display aspect ratio                     : 2.35:1
Frame rate mode                          : Constant
Frame rate                               : 23.976 fps
Color space                              : YUV
Chroma subsampling                       : 4:2:0
Bit depth                                : 8 bits
Scan type                                : Progressive
Bits/(Pixel*Frame)                       : 0.054
Stream size                              : 875 MiB (78%)
Title                                    : Mafiaking
Writing library                          : x264 core 142 r2431 ac76440
Language                                 : Hindi
Default                                  : Yes
Forced                                   : No


Audio
ID                                       : 2
Format                                   : AC-3
Format/Info                              : Audio Coding 3
Mode extension                           : CM (complete main)
Format settings, Endianness              : Big
Codec ID                                 : A_AC3
Duration                                 : 2h 19mn
Bit rate mode                            : Constant
Bit rate                                 : 224 Kbps
Channel(s)                               : 6 channels
Channel positions                        : Front: L C R, Side: L R, LFE
Sampling rate                            : 48.0 KHz
Bit depth                                : 16 bits
Compression mode                         : Lossy
Stream size                              : 223 MiB (20%)
Title                                    : Mafiaking
Language                                 : Hindi
Default                                  : Yes
Forced                                   : No


=== PLOT ===

Akhil (Akshay Kumar) finds out that he is the heir of 3000 crore rupees as he and his mother were abandoned by his diamond baron father (Panna Laal Johari) who is now dead. However, his ...


=== Screens === 
190a687fff27287b4967bbb9f209e2df.th.jpg aa911193a9f12091f953a5eba2666a8c.th.jpg bc6755b42f6b6fd27c6f6f4fca441c2a.th.jpg c6cdc1488d8bb24ff55e2f0233d100f7.th.jpg 8e937fd16bbae6d3dee6d4f1beb97a7e.th.jpg 901f5e6f0ce0cf4b4f2ffbd6db2343d0.th.jpg afd31774adbdf1d2a16c5ef7594ecc3d.th.jpg 4c75d7ac44b1b3f799097aaa8ec1f97e.th.jpg 5e1539936e2effe26211e0df11ff6acd.th.jpg c4b41892d23cf72061cd241c3bcb5c5e.th.jpg 2c78d1e4600f553130f658e991c71ebd.th.jpg 4e3b9e833c47732b7bae0ad050771b1b.th.jpg 1a4481531569ef57e8d6bfad484564a3.th.jpg 5409f6ae0d365f6cbaef3f8b43dcf712.th.jpg
Category:Movies > Bollywood
Lang:Hindi
Total Size:1.10 GB



|| Download This Movie Via Single Resumable Links Size: 1.09 GB ||

Direct-1 Google Drive | Direct-2 | Direct-3 |

Watch Online Click Here

No comments:

Post a Comment