Crazy World Only 4 You

Sorry For The Inconvenience. If You are facing link dead or no google drive file access then inform us via comment

Latest Updates

Tuesday, 8 May 2018

Jab Tum Kaho (2016) Hindi 1080p UntoucheD WEB HD - AVC - AAC - DTOne Exclusive


Poster
0a7f33fab0999955cb8b04f6fe6d1a9a.jpg


iMDB
Imdb Picture Title: Jab Tum Kaho
Year: 2016
Language: Hindi
Country: India
All Genres: Drama
Plot Outline: In this era where one's ego holds the optimum position and its all about I-Me-Myself, how often do we say ''Jab Tum Kaho'' to someone? Making someone happy has always been considered and portrayed as a deed that actually fulfills your own happiness, however it appears to be an old school notion now as those days seem to have faded awayOr do we still have it in us to make others happiness our source of happiness ? This is not a story, its a JourneyA journey of a man unfolds as he transforms from being a Jovial, happy-go-lucky and an optimistic person to a subdued quiet man who becomes mechanical person who lives for the sake of it where there is no ray of hope or no hint of happiness in his life. A journey of a man who was full of life to mere existence in life. Its a journey of what Love stands for this man, from defining love only as lust he discovers the true deep connotation of the emotion behind the word and in the process he also discovers and finds himself. Running over a span ... Written by Uddeept Dutt Gaur
Director: Shankar Vikram
Writing By: Uddeept Dutt Gaur,Nishant,Shankar Vikram,
Produced By: Druv Das,Rajiv Kumar,Anand Mahant,Sn Meena,Amit Rai,Shankar Vikram,
Cast:
Phalguni Chatterjee as Hotel manager
Parvin Dabas as Kumar
Shirin Guha as Divya
Aarav Singh Negi as Chirag
Arnabjyoti Paul as Fake Police Officer
Ambalika Sarkar as Khushi

Details
Name:Jab Tum Kaho (2016) 1080p UntoucheD WEB HD - AVC - AAC - DTOne Exclusive
Description:
Jab Tum Kaho
(2016)
1080p UntoucheD WEB HD - AVC - AAC - DTOne Exclusive



=====================================================
Video
ID                                       : 1
Format                                   : AVC
Format/Info                              : Advanced Video Codec
Format profile                           : High@L4
Format settings                          : CABAC / 3 Ref Frames
Format settings, CABAC                   : Yes
Format settings, RefFrames               : 3 frames
Codec ID                                 : avc1
Codec ID/Info                            : Advanced Video Coding
Duration                                 : 1 h 34 min
Duration_FirstFrame                      : -40 ms
Bit rate                                 : 1 692 kb/s
Width                                    : 1 920 pixels
Height                                   : 1 080 pixels
Display aspect ratio                     : 16:9
Frame rate mode                          : Variable
Frame rate                               : 25.000 FPS
Minimum frame rate                       : 25.000 FPS
Maximum frame rate                       : 25.014 FPS
Color space                              : YUV
Chroma subsampling                       : 4:2:0
Bit depth                                : 8 bits
Scan type                                : Progressive
Bits/(Pixel*Frame)                       : 0.033
Stream size                              : 1.11 GiB (93%)
Color range                              : Limited
Color primaries                          : BT.709
Transfer characteristics                 : BT.709
Matrix coefficients                      : BT.709

Audio
ID                                       : 2
Format                                   : AAC
Format/Info                              : Advanced Audio Codec
Format profile                           : LC
Codec ID                                 : mp4a-40-2
Duration                                 : 1 h 34 min
Bit rate mode                            : Constant
Bit rate                                 : 126 kb/s
Channel(s)                               : 2 channels
Channel positions                        : Front: L R
Sampling rate                            : 44.1 kHz
Frame rate                               : 43.066 FPS (1024 SPF)
Compression mode                         : Lossy
Stream size                              : 84.6 MiB (7%)
Default                                  : Yes
Alternate group                          : 1

=====================================================

SCREENSHOTS
===========
Category:Movies > Bollywood
Lang:Hindi
Total Size:1.20 GB



|| Download This Movie Via Single Resumable Links Size: 1.20 GB ||

Direct-1 Google Drive | Direct-2 | Direct-3 |

Watch Online Click Here

No comments:

Post a Comment