Crazy World Only 4 You

Sorry For The Inconvenience. If You are facing link dead or no google drive file access then inform us via comment

Latest Updates

Wednesday, 9 May 2018

Jio Dhan Dhana Dhan Live S01E10 Uncut 720p WEBHD x264 AAC - DTOne


Poster


Details
Name: Jio Dhan Dhana Dhan Live S01E10 Uncut 720p WEBHD x264 AAC - DTOne
Description:
 Jio Dhan Dhana Dhan Live S01E10 Uncut 720p WEBHD x264 AAC - DTOne


  Format                                   : MPEG-4
Format profile                           : Base Media / Version 2
Codec ID                                 : mp42 (isom/mp42)
File size                                : 1.40 GiB
Duration                                 : 1 h 9 min
Overall bit rate mode                    : Variable
Overall bit rate                         : 2 872 kb/s
Encoded date                             : UTC 2018-05-01 11:42:19
Tagged date                              : UTC 2018-05-01 11:42:19
gsst                                     : 0
gstd                                     : 4185373

Video
ID                                       : 1
Format                                   : AVC
Format/Info                              : Advanced Video Codec
Format profile                           : High@L3.1
Format settings                          : CABAC / 1 Ref Frames
Format settings, CABAC                   : Yes
Format settings, RefFrames               : 1 frame
Codec ID                                 : avc1
Codec ID/Info                            : Advanced Video Coding
Duration                                 : 1 h 9 min
Bit rate                                 : 2 742 kb/s
Maximum bit rate                         : 7 369 kb/s
Width                                    : 1 270 pixels
Height                                   : 720 pixels
Display aspect ratio                     : 16:9
Frame rate mode                          : Constant
Frame rate                               : 25.000 FPS
Color space                              : YUV
Chroma subsampling                       : 4:2:0
Bit depth                                : 8 bits
Scan type                                : Progressive
Bits/(Pixel*Frame)                       : 0.120
Stream size                              : 1.34 GiB (95%)
Tagged date                              : UTC 2018-05-01 11:42:45
Color range                              : Limited
Color primaries                          : BT.709
Transfer characteristics                 : BT.709
Matrix coefficients                      : BT.709

Audio
ID                                       : 2
Format                                   : AAC
Format/Info                              : Advanced Audio Codec
Format profile                           : LC
Codec ID                                 : mp4a-40-2
Duration                                 : 1 h 9 min
Bit rate mode                            : Variable
Bit rate                                 : 128 kb/s
Maximum bit rate                         : 135 kb/s
Channel(s)                               : 2 channels
Channel positions                        : Front: L R
Sampling rate                            : 44.1 kHz
Frame rate                               : 43.066 FPS (1024 SPF)
Compression mode                         : Lossy
Stream size                              : 63.9 MiB (4%)
Title                                    : IsoMedia File Produced by Google, 5-11-2011
Encoded date                             : UTC 2018-05-01 11:42:37
Tagged date                              : UTC 2018-05-01 11:42:45

           
Category:Movies > Bollywood
Lang:Hindi
Total Size:1.40 GB



:download:

|| Download This Tv Show Via Single Resumable Links Size: 1.40 GB ||

Direct-1 Google Drive | Direct-2 | Direct-3 |

Watch Online Click Here

No comments:

Post a Comment