Crazy World Only 4 You

Sorry For The Inconvenience. If You are facing link dead or no google drive file access then inform us via comment

Latest Updates

Saturday, 12 May 2018

Jio Dhan Dhana Dhan Live S01E11 Uncut 480p WEBHD x264 AAC - DTOne


Poster


Details
Name: Jio Dhan Dhana Dhan Live S01E11 Uncut 480p WEBHD x264 AAC - DTOne
Description:
 Jio Dhan Dhana Dhan Live S01E11 Uncut 480p WEBHD x264 AAC - DTOne


Format                                   : MPEG-4
Format profile                           : Base Media / Version 2
Codec ID                                 : mp42 (isom/mp42)
File size                                : 594 MiB
Duration                                 : 1 h 8 min
Overall bit rate mode                    : Variable
Overall bit rate                         : 1 218 kb/s
Encoded date                             : UTC 2018-05-07 21:04:00
Tagged date                              : UTC 2018-05-07 21:04:00
gsst                                     : 0
gstd                                     : 4090286

Video
ID                                       : 1
Format                                   : AVC
Format/Info                              : Advanced Video Codec
Format profile                           : Main@L3
Format settings                          : CABAC / 3 Ref Frames
Format settings, CABAC                   : Yes
Format settings, RefFrames               : 3 frames
Codec ID                                 : avc1
Codec ID/Info                            : Advanced Video Coding
Duration                                 : 1 h 8 min
Bit rate                                 : 1 087 kb/s
Maximum bit rate                         : 3 190 kb/s
Width                                    : 848 pixels
Height                                   : 480 pixels
Display aspect ratio                     : 16:9
Frame rate mode                          : Constant
Frame rate                               : 25.000 FPS
Color space                              : YUV
Chroma subsampling                       : 4:2:0
Bit depth                                : 8 bits
Scan type                                : Progressive
Bits/(Pixel*Frame)                       : 0.107
Stream size                              : 530 MiB (89%)
Tagged date                              : UTC 2018-05-07 21:05:16
Color range                              : Limited
Color primaries                          : BT.709
Transfer characteristics                 : BT.709
Matrix coefficients                      : BT.709

Audio
ID                                       : 2
Format                                   : AAC
Format/Info                              : Advanced Audio Codec
Format profile                           : LC
Codec ID                                 : mp4a-40-2
Duration                                 : 1 h 8 min
Bit rate mode                            : Variable
Bit rate                                 : 128 kb/s
Maximum bit rate                         : 135 kb/s
Channel(s)                               : 2 channels
Channel positions                        : Front: L R
Sampling rate                            : 44.1 kHz
Frame rate                               : 43.066 FPS (1024 SPF)
Compression mode                         : Lossy
Stream size                              : 62.4 MiB (11%)
Title                                    : IsoMedia File Produced by Google, 5-11-2011
Encoded date                             : UTC 2018-05-07 21:04:46
Tagged date                              : UTC 2018-05-07 21:05:16






Category:Movies > Bollywood
Lang:Hindi
Total Size:593.65 MB



:download:

|| Download This Tv Show Via Single Resumable Links Size: 594 MB ||

Direct-1 Google Drive | Direct-2 | Direct-3 |

Watch Online Click Here

No comments:

Post a Comment