Crazy World Only 4 You

Sorry For The Inconvenience. If You are facing link dead or no google drive file access then inform us via comment

Latest Updates

Wednesday, 23 May 2018

Kaalakaandi (2018) Hindi 720p HDRip x264 AAC ~ Ranvijay


Poster
ad6eaaadd11d6fc5f1b92a2e02ece886.jpg


iMDB
Imdb Picture Title: Kaalakaandi
Year: 2018
Votes: 64
Rating: 8.1/10
Language: Hindi
Country: India
All Genres: Comedy
Plot Outline: "Kaalakaandi" is a Marathi slang for when things go disastrously wrong. The film is a dark comedy about life, death and karma.
Director: Akshat Verma
Writing By: Akshat Verma,
Produced By: Vicky Bhatia,Nitin Makasare,Sahil Mehra,Aditya Singh,Akshat Verma,
Cast:
Saif Ali Khan as
Amyra Dastur as
Shenaz Treasury as Aisha
Pankaj Tripathi as
Vijay Raaz as Mafia
Sobhita Dhulipala as
Isha Talwar as
Kunaal Roy Kapur as
Deepak Dobriyal as Mafia
Akshay Oberoi as
Trailers:
Kaalaakandi Trailer

    

Details
Name:Kaalakaandi (2018) Hindi 720p - UntoucheD WEB HD - AVC - AAC - DTOne Exclusive
Description:
Kaalakaandi (2018) 720P HDRIP x264 AAC ~ Ranvijay 



Source :- Hotstar
 Format                                   : Matroska
Format version                           : Version 4 / Version 2
File size                                : 1.01 GiB
Duration                                 : 1 h 44 min
Overall bit rate                         : 1 381 kb/s
Movie name                               : Kaalakaandi (2018) 720P HDRIP x264 AAC ~ Ranvijay


Video
ID                                       : 1
Format                                   : AVC
Duration                                 : 1 h 44 min
Bit rate                                 : 1 304 kb/s
Width                                    : 1 280 pixels
Height                                   : 544 pixels
Display aspect ratio                     : 2.35:1
Frame rate mode                          : Constant
Frame rate                               : 25.000 FPS
Stream size                              : 984 MiB (95%)
Title                                    : ~Ranvijay~
Default                                  : Yes
Forced                                   : No

Audio
ID                                       : 2
Format                                   : AAC
Format/Info                              : Advanced Audio Codec
Format profile                           : LC
Codec ID                                 : A_AAC-2
Duration                                 : 1 h 44 min
Bit rate                                 : 61.4 kb/s
Channel(s)                               : 2 channels
Channel positions                        : Front: L R
Sampling rate                            : 48.0 kHz
Frame rate                               : 46.875 FPS (1024 SPF)
Compression mode                         : Lossy
Delay relative to video                  : -80 ms
Stream size                              : 45.8 MiB (4%)
Title                                    : ~Ranvijay~
Language                                 : Hindi
Default                                  : Yes
Forced                                   : No 

2998195ac81b22edb68aed81c3de9bf6.th.png 166a1634da0aa5498a26d4115a831af3.th.png 9fcba75c944e12f623e199c1034602fc.th.png 2fe57ad29f0d73bab1d757d823258bd7.th.png 6a12b30bf891a54d6fb3f0b06a5f2c65.th.png b2939d87e9832b4e1dae1be544b5874a.th.png aa4634a8a3120eaf74cb5c27c682c9be.th.png 2d2e80e013d02f0e5707106d293930b8.th.png 565325efa7cf1904db2ca8f54b579127.th.png 6a4984eb64a2bbed1534c27052789706.th.png dd2d94bf0f8a8abf09f60eab4b000465.th.png 2a3811f3689df74b208ba15901207994.th.png
Category:Movies > Bollywood
Lang:Hindi
Total Size:1.02 GB



|| Download This Movie Via Single Resumable Links Size: 1.01 GB ||

Direct-1 Google Drive | Direct-2 | Direct-3 |

Watch Online Click Here

No comments:

Post a Comment