Mercury (2018) 480p - (HindI) - UntoucheD WEB HQ - AVC - AAC - DTOne Exclusive


Poster


iMDB
Imdb Picture Title: Mercury
Year: 2018
Runtime: 106 minutes
Votes: 16
Rating: 7.6/10
Country: India
All Genres: Horror, Thriller
Plot Outline: A group of youngsters try to escape from a man who has fallen prey to mercury poisoning in this silent thriller.
Tagline: Silence is the most powerful scream
Director: Karthik Subbaraj

Produced By: Jayantilal Gada,M. Ashok Narayanan,Kaarthekeyen Santhanam,Kalyan Subramanian,
Music: Santhosh Narayanan
Cast:
Gajaraj as
Ramya Nambeeshan as
Prabhudheva as
Sananth Reddy as
Trailers:
Official 'Mercury' Teaser



Details
Name:Mercury (2018) 480p - (HindI) - UntoucheD WEB Hq - AVC - AAC - DTOne Exclusive
Description:
Mercury
(2018)
480P - UntoucheD WEB Hq - AVC - AAC - DTOne Exclusive



=====================================================
Video
ID                                      : 1
Format                                  : AVC
Format/Info                              : Advanced Video Codec
Format profile                          : Main@L3.1
Format settings                          : CABAC / 8 Ref Frames
Format settings, CABAC                  : Yes
Format settings, RefFrames              : 8 frames
Codec ID                                : avc1
Codec ID/Info                            : Advanced Video Coding
Duration                                : 1 h 35 min
Bit rate                                : 1 300 kb/s
Maximum bit rate                        : 5 139 kb/s
Width                                    : 720 pixels
Height                                  : 480 pixels
Display aspect ratio                    : 1.85:1
Frame rate mode                          : Constant
Frame rate                              : 24.000 FPS
Color space                              : YUV
Chroma subsampling                      : 4:2:0
Bit depth                                : 8 bits
Scan type                                : Progressive
Bits/(Pixel*Frame)                      : 0.157
Stream size                              : 889 MiB (95%)
Writing library                          : x264 core 146 r2538 121396c

Audio
ID                                      : 2
Format                                  : AAC
Format/Info                              : Advanced Audio Codec
Format profile                          : LC
Codec ID                                : mp4a-40-2
Duration                                : 1 h 35 min
Bit rate mode                            : Variable
Bit rate                                : 64.0 kb/s
Maximum bit rate                        : 126 kb/s
Channel(s)                              : 2 channels
Channel positions                        : Front: L R
Sampling rate                            : 48.0 kHz
Frame rate                              : 46.875 FPS (1024 SPF)
Compression mode                        : Lossy
Stream size                              : 43.8 MiB (5%)
Encoded date                            : UTC 2018-05-24 19:04:38
Tagged date                              : UTC 2018-05-24 19:09:29
=====================================================

SCREENSHOTS
===========
Category:Movies > Bollywood
Lang:Hindi
Total Size:935.74 MB





|| Download This Movie Via Single Resumable Links Size: 936 MB ||

Direct-1 Google Drive | Direct-2 | Direct-3 |

Watch Online Click Here

Post a Comment

0 Comments