Monster High Ghouls Rule! (2012) BluRay 720p x264 [Dual Audio] [Hindi DD 5.1 - Eng 2.0] AAC Esub -=!Katyayan!=-


Poster


iMDB
Imdb Picture Title: Monster High: Ghouls Rule!
Year: 2012
Runtime: 71 minutes
Votes: 583
Rating: 5.9/10
Language: English
Country: USA
All Genres: Animation, Family
Plot Outline: When the freaky-fab guys and ghouls of Monster High get wrongly accused of Halloween high jinx by a group of normies, things get spooky. But can they prove their innocence in time for a spooktacular celebration?
Director: Mike Fetterly
Steve Sacks
Writing By: Mike Montesano,Ted Zizik,
Produced By: Tina Chow,Ken Faier,Asaph Fipke,Chuck Johnson,Audu Paden,Maria Elena Rodriguez,Lauren Rose,Ira Singerman,
Cast:
Erin Fitzgerald as Abbey Bominable / C.A. Cupid / Clair / Kid #2 / Rochelle Goyle / Spectra Vondergeist
Steve Staley as Chad / Kid #1
Ogie Banks as Clawd Wolf
Salli Saffioti as Clawdeen Wolf / Cleo DeNile
Evan Smith as Deuce Gorgon / Gil Webber / Thad
Debi Derryberry as Draculaura
Kate Higgins as Frankie Stein / Lilith Van Helscream
Mark Mercado as Gargoyle
Audu Paden as Ghoulia Yelps / New Salem High Principal / Manny Taur / Mr. Hack / Ramses DeNile / Sheriff
Ira Singerman as Goon #1
Trailers:
Monster High: Ghouls Rule

Details
Name:Monster High Ghouls Rule! (2012) BluRay 720p x264 [Dual Audio] [Hindi DD 5.1 - Eng 2.0] AAC Esu...
Description:
Monster High Ghouls Rule! (2012) BluRay 720p x264 [Dual Audio] [Hindi DD 5.1 - Eng 2.0] AAC Esub -=!Katyayan!=-



Thanks To -Ð@Rk.ÐèVi£- For Hindi Audio

Format                                   : Matroska
Format version                           : Version 4 / Version 2
File size                                : 648 MiB
Duration                                 : 1 h 11 min
Overall bit rate                         : 1 270 kb/s
Movie name                               : Monster High Ghouls Rule! (2012) BluRay 720p x264 [Dual Audio] [Hindi DD 5.1 - Eng 2.0] AAC Esub -=!Katyayan!=-

Video
ID                                       : 1
Format                                   : AVC
Format/Info                              : Advanced Video Codec
Format profile                           : High@L4
Format settings                          : CABAC / 9 Ref Frames
Format settings, CABAC                   : Yes
Format settings, RefFrames               : 9 frames
Codec ID                                 : V_MPEG4/ISO/AVC
Duration                                 : 1 h 11 min
Bit rate                                 : 979 kb/s
Width                                    : 1 280 pixels
Height                                   : 720 pixels
Display aspect ratio                     : 16:9
Frame rate mode                          : Constant
Frame rate                               : 23.976 (24000/1001) FPS
Color space                              : YUV
Chroma subsampling                       : 4:2:0
Bit depth                                : 8 bits
Scan type                                : Progressive
Bits/(Pixel*Frame)                       : 0.044
Stream size                              : 499 MiB (77%)
Title                                    : Monster High Ghouls Rule! (2012) BluRay 720p x264 [Dual Audio] [Hindi DD 5.1 - Eng 2.0] AAC Esub -=!Katyayan!=-
Writing library                          : x264 core 125 r2200 999b753
Language                                 : English
Default                                  : Yes
Forced                                   : No

Audio #1
ID                                       : 2
Format                                   : AAC
Format/Info                              : Advanced Audio Codec
Format profile                           : LC
Codec ID                                 : A_AAC-2
Duration                                 : 1 h 11 min
Bit rate                                 : 96.0 kb/s
Channel(s)                               : 2 channels
Channel positions                        : Front: L R
Sampling rate                            : 48.0 kHz
Frame rate                               : 46.875 FPS (1024 SPF)
Compression mode                         : Lossy
Delay relative to video                  : -125 ms
Stream size                              : 49.0 MiB (8%)
Title                                    : -=!Katyayan!=-
Language                                 : English
Default                                  : No
Forced                                   : No

Audio #2
ID                                       : 3
Format                                   : AAC
Format/Info                              : Advanced Audio Codec
Format profile                           : LC
Codec ID                                 : A_AAC-2
Duration                                 : 1 h 11 min
Bit rate                                 : 192 kb/s
Channel(s)                               : 6 channels
Channel positions                        : Front: L C R, Side: L R, LFE
Sampling rate                            : 48.0 kHz
Frame rate                               : 46.875 FPS (1024 SPF)
Compression mode                         : Lossy
Delay relative to video                  : -125 ms
Stream size                              : 98.0 MiB (15%)
Title                                    : -=!Katyayan!=-
Language                                 : Hindi
Default                                  : Yes
Forced                                   : Yes

Text
ID                                       : 4
Format                                   : UTF-8
Codec ID                                 : S_TEXT/UTF8
Codec ID/Info                            : UTF-8 Plain Text
Duration                                 : 1 h 10 min
Bit rate                                 : 83 b/s
Count of elements                        : 1234
Stream size                              : 43.2 KiB (0%)
Title                                    : -=!Katyayan!=-
Language                                 : English
Default                                  : Yes
Forced                                   : Yes

 

Category:Movies > Hollywood Dub
Lang:Hindi
Total Size:648.39 MB



|| Download This Movie Via Single Resumable Links Size: 648 MB ||

Direct-1 Google Drive | Direct-2 | Direct-3 |

Watch Online Click Here

Post a Comment

0 Comments