Crazy World Only 4 You

Sorry For The Inconvenience. If You are facing link dead or no google drive file access then inform us via comment

Latest Updates

Sunday, 6 May 2018

Mr. Robot Season 03 S03 Complete 720p BluRay x264 [Hindi - English] x264 Esub ~ Ranvijay


Poster
d8076374f1cf4f19e4879d810e55828d.jpg


iMDB
Imdb Picture Title: Mr. Robot
Year: 2015
Runtime: 49 minutes
Votes: 222770
Rating: 8.6/10
Language: English, Swedish, Danish, Chinese, Persian
Country: USA
All Genres: Crime, Drama, Thriller
Plot Outline: Follows Elliot, a young programmer working as a cyber-security engineer by day, and a vigilante hacker by night.
Tagline: F**k Wall St. (Season 1)
Director: Sam Esmail
Jim McKay
Tricia Brock
Deborah Chow
Nisha Ganatra
Niels Arden Oplev
Christoph Schrewe
Writing By: Sam Esmail,Randolph Leon,Adam Penn,Kyle Bradstreet,Kate Erickson,David Iserson,Kor Adana,Courtney Looney,Lucy Teitler,
Produced By: Sam Esmail,Steve Golin,Chad Hamilton,Kyle Bradstreet,Matt Pyken,Joseph E. Iberti,Adam Penn,Christian Slater,Todd Nenninger,David Iserson,Katie Lilly,Margo Myers,Niels Arden Oplev,Igor Srubshchik,Gregg Tilson,
Music: Mac Quayle
Plot:
Follows Elliot, a young programmer working as a cyber-security engineer by day, and a vigilante hacker by night.
- Written by USA
Cast:
Rami Malek as Elliot Alderson
Carly Chaikin as Darlene
Portia Doubleday as Angela Moss
Martin Wallström as Tyrell Wellick
Christian Slater as Mr. Robot
Stephanie Corneliussen as Joanna Wellick
Michael Cristofer as Phillip Price
Grace Gummer as Dominique DiPierro
BD Wong as Whiterose
Sunita Mani as Trenton
Trailers:
New Episodes on Wednesdays
Series Premiere
Tonight 10 p.m.
Series Premiere: This Wednesday
Season 2 Trailer
Series Premiere: Tomorrow

Details
Name:Mr. Robot S03 Complete BluRay 720p x264 Dual Audio [Hindi-Eng] ~ Ranvijay
Description:
Mr. Robot S03 Complete BluRay 720p x264 Dual Audio [Hindi DD2.0 - Eng DD2.0] - Esub ~ Ranvijay 






Format                                   : Matroska
Format version                           : Version 4 / Version 2
File size                                : 424 MiB
Duration                                 : 53 min 16 s
Overall bit rate                         : 1 114 kb/s


Video
ID                                       : 1
Format                                   : AVC
Duration                                 : 53 min 16 s
Bit rate                                 : 640 kb/s
Width                                    : 1 280 pixels
Height                                   : 720 pixels
Display aspect ratio                     : 16:9
Frame rate mode                          : Constant
Frame rate                               : 23.976 (24000/1001) FPS
Stream size                              : 244 MiB (57%)
Title                                    : ~Ranvijay~
Default                                  : Yes
Forced                                   : No

Audio #1
ID                                       : 2
Format                                   : AAC
Format/Info                              : Advanced Audio Codec
Format profile                           : LC
Codec ID                                 : A_AAC-2
Duration                                 : 53 min 16 s
Bit rate                                 : 87.2 kb/s
Channel(s)                               : 2 channels
Channel positions                        : Front: L R
Sampling rate                            : 48.0 kHz
Frame rate                               : 46.875 FPS (1024 SPF)
Compression mode                         : Lossy
Delay relative to video                  : 9 ms
Stream size                              : 33.2 MiB (8%)
Title                                    : ~Ranvijay~
Language                                 : English
Default                                  : No
Forced                                   : No

Audio #2
ID                                       : 4
Format                                   : AC-3
Format/Info                              : Audio Coding 3
Codec ID                                 : A_AC3
Duration                                 : 53 min 16 s
Bit rate mode                            : Constant
Bit rate                                 : 384 kb/s
Channel(s)                               : 2 channels
Channel positions                        : Front: L R
Sampling rate                            : 48.0 kHz
Frame rate                               : 31.250 FPS (1536 SPF)
Bit depth                                : 16 bits
Compression mode                         : Lossy
Stream size                              : 146 MiB (34%)
Title                                    : ~Ranvijay~
Language                                 : Hindi
Service kind                             : Complete Main
Default                                  : Yes
Forced                                   : Yes

Text
ID                                       : 3
Format                                   : UTF-8
Codec ID                                 : S_TEXT/UTF8
Codec ID/Info                            : UTF-8 Plain Text
Duration                                 : 52 min 16 s
Bit rate                                 : 62 b/s
Count of elements                        : 764
Stream size                              : 23.8 KiB (0%)
Title                                    : ~Ranvijay~
Language                                 : English
Default                                  : Yes
Forced                                   : No

                           
Category:TV > WEB-HD
Lang:Hindi
Total Size:3.76 GB



:download:

|| Download This Tv Show Via Single Resumable Links Size: 3.76 GB ||

Direct-1 Google Drive |

No comments:

Post a Comment