Crazy World Only 4 You

Sorry For The Inconvenience. If You are facing link dead or no google drive file access then inform us via comment

Latest Updates

Tuesday, 22 May 2018

Popstar Never Stop Never Stopping (2016) BluRay 720p x264 [Dual Audio] [Hindi DD 5.1 - Eng 2.0] AAC Esub -=!Katyayan!=-


Poster


iMDB
Imdb Picture Title: Popstar: Never Stop Never Stopping
Year: 2016
Runtime: 87 minutes
Votes: 39956
Rating: 6.7/10
Language: English
Country: USA, China
All Genres: Comedy, Music
Plot Outline: When his new album fails to sell records, pop/rap superstar conner4real goes into a major tailspin and watches his celebrity high life begin to collapse. He'll try anything to bounce back, anything except reuniting with his old rap group The Style Boyz.
Director: Akiva Schaffer
Jorma Taccone
Writing By: Andy Samberg,Akiva Schaffer,Jorma Taccone,
Produced By: Judd Apatow,Adrien Finkel,Amanda Glaze,Garrett Grant,Rodney Rothman,Morgan Sackett,Andy Samberg,Akiva Schaffer,Jorma Taccone,
Music: Matthew Compton
Cast:
Andy Samberg as Conner
Jorma Taccone as Owen
Akiva Schaffer as Lawrence
Sarah Silverman as Paula
Tim Meadows as Harry
Maya Rudolph as Deborah
Joan Cusack as Tilly
Imogen Poots as Ashley
Chris Redd as Hunter
Edgar Blackmon as Eddie
Trailers:
Trailer #2
Trailer #1
Red Band Trailer



Details
Name:Popstar Never Stop Never Stopping (2016) BluRay 720p x264 [Dual Audio] [Hindi DD 5.1 - Eng 2.0]...
Description:
Popstar Never Stop Never Stopping (2016) BluRay 720p x264 [Dual Audio] [Hindi DD 5.1 - Eng 2.0] AAC Esub -=!Katyayan!=-

 

Format                                   : Matroska
Format version                           : Version 4 / Version 2
File size                                : 748 MiB
Duration                                 : 1 h 26 min
Overall bit rate                         : 1 208 kb/s
Movie name                               : Popstar Never Stop Never Stopping (2016) BluRay 720p x264 [Dual Audio] [Hindi DD 5.1 - Eng 2.0] AAC Esub -=!Katyayan!=-
Encoded date                             : UTC 2018-05-19 14:10:49
Writing application                      : mkvmerge v19.0.0 ('Brave Captain') 32-bit
Writing library                          : libebml v1.3.5 + libmatroska v1.4.8
Attachments                              : -=!Katyayan!=-

Video
ID                                       : 1
Format                                   : AVC
Format/Info                              : Advanced Video Codec
Format profile                           : High@L4.1
Format settings                          : CABAC / 5 Ref Frames
Format settings, CABAC                   : Yes
Format settings, RefFrames               : 5 frames
Codec ID                                 : V_MPEG4/ISO/AVC
Duration                                 : 1 h 26 min
Bit rate                                 : 949 kb/s
Width                                    : 1 280 pixels
Height                                   : 536 pixels
Display aspect ratio                     : 2.40:1
Frame rate mode                          : Constant
Frame rate                               : 23.976 (24000/1001) FPS
Color space                              : YUV
Chroma subsampling                       : 4:2:0
Bit depth                                : 8 bits
Scan type                                : Progressive
Bits/(Pixel*Frame)                       : 0.058
Stream size                              : 587 MiB (79%)
Title                                    : Popstar Never Stop Never Stopping (2016) BluRay 720p x264 [Dual Audio] [Hindi DD 5.1 - Eng 2.0] AAC Esub -=!Katyayan!=-
Writing library                          : x264 core 148 r2638 7599210
Language                                 : English
Default                                  : Yes
Forced                                   : No
Color range                              : Limited
Color primaries                          : BT.709
Matrix coefficients                      : BT.709

Audio #1
ID                                       : 2
Format                                   : AAC
Format/Info                              : Advanced Audio Codec
Format profile                           : LC
Codec ID                                 : A_AAC-2
Duration                                 : 1 h 26 min
Bit rate                                 : 192 kb/s
Channel(s)                               : 6 channels
Channel positions                        : Front: L C R, Side: L R, LFE
Sampling rate                            : 48.0 kHz
Frame rate                               : 46.875 FPS (1024 SPF)
Compression mode                         : Lossy
Delay relative to video                  : 500 ms
Stream size                              : 119 MiB (16%)
Title                                    : -=!Katyayan!=-
Language                                 : Hindi
Default                                  : Yes
Forced                                   : Yes

Audio #2
ID                                       : 3
Format                                   : AAC
Format/Info                              : Advanced Audio Codec
Format profile                           : HE-AAC / LC
Format settings                          : Explicit
Codec ID                                 : A_AAC-2
Duration                                 : 1 h 26 min
Bit rate                                 : 64.0 kb/s
Channel(s)                               : 2 channels
Channel positions                        : Front: L R
Sampling rate                            : 48.0 kHz / 24.0 kHz
Frame rate                               : 23.438 FPS (1024 SPF)
Compression mode                         : Lossy
Delay relative to video                  : 31 ms
Stream size                              : 39.6 MiB (5%)
Title                                    : -=!Katyayan!=-
Language                                 : English
Default                                  : No
Forced                                   : No

Text
ID                                       : 4
Format                                   : UTF-8
Codec ID                                 : S_TEXT/UTF8
Codec ID/Info                            : UTF-8 Plain Text
Duration                                 : 1 h 26 min
Bit rate                                 : 118 b/s
Count of elements                        : 2218
Stream size                              : 74.7 KiB (0%)
Title                                    : -=!Katyayan!=-
Language                                 : English
Default                                  : Yes
Forced                                   : Yes



 


Category:Movies > Hollywood Dub
Lang:Hindi
Total Size:747.99 MB



|| Download This Movie Via Single Resumable Links Size: 748 MB ||

Direct-1 Google Drive | Direct-2 | Direct-3 |

Watch Online Click Here

No comments:

Post a Comment