Red Sparrow (2018) BluRay 720p x264 Dual Audio [Hindi DD 5.1 - Eng] Msub [Team SSX]


Poster


iMDB
Imdb Picture Title: Red Sparrow
Year: 2018
Runtime: 139 minutes
Votes: 5470
Rating: 6.5/10
Language: English, Russian
Country: USA
All Genres: Mystery, Thriller
Plot Outline: Ballerina Dominika Egorova is recruited to 'Sparrow School,' a Russian intelligence service where she is forced to use her body as a weapon. Her first mission, targeting a C.I.A. agent, threatens to unravel the security of both nations.
Tagline: Seductive. Deceptive. Deadly.
Director: Francis Lawrence
Writing By: Justin Haythe,Jason Matthews,
Produced By: Garrett Basch,Peter Chernin,Ildiko Kemeny,Cameron MacConomy,Mary McLaglen,David Minkowski,David Ready,Jenno Topping,Steven Zaillian,
Music: James Newton Howard
Cast:
Jennifer Lawrence as Dominika Egorova
Joel Edgerton as Nate Nash
Matthias Schoenaerts as Vanya Egorov
Charlotte Rampling as Matron
Mary-Louise Parker as Stephanie Boucher
CiarĂ¡n Hinds as Zakharov
Joely Richardson as Nina Egorova
Bill Camp as Marty Gable
Jeremy Irons as General Korchnoi
Thekla Reuten as Marta
Trailers:
Official Trailer
Official Trailer

    

Details
Name:Red Sparrow (2018) BluRay 720p x264 Dual Audio [Hindi DD 5.1 - Eng] Msub [Team SSX]
Description:
Red Sparrow (2018) 720p BluRay x264 Eng-Hindi AC3 DD 5.1 E-sub [Team SSX]



General

Format                                   : Matroska
Format version                           : Version 4 / Version 2
File size                                : 1.62 GiB
Duration                                 : 2 h 20 min
Overall bit rate                         : 1 654 kb/s


Video
ID                                       : 1
Format                                   : AVC
Format/Info                              : Advanced Video Codec
Format profile                           : High@L4.1
Format settings                          : CABAC / 4 Ref Frames
Format settings, CABAC                   : Yes
Format settings, RefFrames               : 4 frames
Codec ID                                 : V_MPEG4/ISO/AVC
Duration                                 : 2 h 20 min
Bit rate                                 : 1 050 kb/s
Width                                    : 1 280 pixels
Height                                   : 534 pixels
Display aspect ratio                     : 2.40:1
Original display aspect ratio            : 2.40:1
Frame rate mode                          : Constant
Frame rate                               : 23.976 (24000/1001) FPS
Color space                              : YUV
Chroma subsampling                       : 4:2:0
Bit depth                                : 8 bits
Scan type                                : Progressive
Bits/(Pixel*Frame)                       : 0.064
Stream size                              : 1.03 GiB (63%)
Default                                  : Yes
Forced                                   : No

Audio #1
ID                                       : 2
Format                                   : AAC
Format/Info                              : Advanced Audio Codec
Format profile                           : LC
Codec ID                                 : A_AAC-2
Duration                                 : 2 h 20 min
Bit rate                                 : 132 kb/s
Channel(s)                               : 2 channels
Channel positions                        : Front: L R
Sampling rate                            : 48.0 kHz
Frame rate                               : 46.875 FPS (1024 SPF)
Compression mode                         : Lossy
Delay relative to video                  : -43 ms
Stream size                              : 135 MiB (8%)
Default                                  : Yes
Forced                                   : No

Audio #2
ID                                       : 3
Format                                   : AC-3
Format/Info                              : Audio Coding 3
Codec ID                                 : A_AC3
Duration                                 : 2 h 20 min
Bit rate mode                            : Constant
Bit rate                                 : 448 kb/s
Channel(s)                               : 6 channels
Channel positions                        : Front: L C R, Side: L R, LFE
Sampling rate                            : 48.0 kHz
Frame rate                               : 31.250 FPS (1536 SPF)
Bit depth                                : 16 bits
Compression mode                         : Lossy
Delay relative to video                  : -43 ms
Stream size                              : 449 MiB (27%)
Language                                 : Hindi
Service kind                             : Complete Main
Default                                  : No
Forced                                   : No

Text #1
ID                                       : 4
Format                                   : PGS
Muxing mode                              : zlib
Codec ID                                 : S_HDMV/PGS
Codec ID/Info                            : Picture based subtitle format used on BDs/HD-DVDs
Duration                                 : 2 h 12 min
Bit rate                                 : 35.3 kb/s
Count of elements                        : 3554
Stream size                              : 33.5 MiB (2%)
Language                                 : English
Default                                  : Yes
Forced                                   : No

Text #2
ID                                       : 5
Format                                   : PGS
Muxing mode                              : zlib
Codec ID                                 : S_HDMV/PGS
Codec ID/Info                            : Picture based subtitle format used on BDs/HD-DVDs
Duration                                 : 2 h 18 min
Bit rate                                 : 22.1 kb/s
Count of elements                        : 2978
Stream size                              : 21.9 MiB (1%)
Language                                 : Hindi
Default                                  : No
Forced                                   : No

e9d2ca7b5bcea8bbec1095b731124f97.th.png 6eb6e4ab8cfbd36eef5e94cfaf638c97.th.png 65ad483429ea518e7f0819926c2816df.th.png ce2d34c55d7de9ba43c4c4c0059aa0e1.th.png 7562533d21f3329ae8f09f0fe57137a2.th.png 3a75fc265d4ec12560f78e939e7e7199.th.png b5d38268ced281b8c4450b5981366a77.th.png 953c1573623711d8c281575abf60dd8e.th.png
Category:Movies > Hollywood Dub
Lang:Hindi
Total Size:1.62 GB



|| Download This Movie Via Single Resumable Links Size: 1.62 GB ||

Direct-1 Google Drive | Direct-2 | Direct-3 |

Watch Online Click Here

Post a Comment

0 Comments