Crazy World Only 4 You

Sorry For The Inconvenience. If You are facing link dead or no google drive file access then inform us via comment

Latest Updates

Friday, 4 May 2018

Redemption (2013) Eng 720p BluRay H264 AAC-RARBG


Poster
2d43f0921549c4e6d923adce026353be.jpg


iMDB
Imdb Picture Original Title: Hummingbird
Title: Redemption
Year: 2013
Runtime: 100 minutes
Votes: 57930
Rating: 6.2/10
Language: English, Polish, Cantonese, Italian, English
Country: UK, USA
All Genres: Action, Crime, Drama, Thriller
Plot Outline: Homeless and on the run from a military court martial, a damaged ex-special forces soldier navigating London's criminal underworld seizes an opportunity to assume another man's identity -- transforming into an avenging angel in the process.
Tagline: All roads don't lead to salvation.
Director: Steven Knight
Writing By: Steven Knight,
Produced By: Stuart Ford,Guy Heeley,Lou Karsen,Brian Kavanaugh-Jones,Tracy Rector,Steven Squillante,Andrew Warren,Paul Webster,Joe Wright,
Music: Dario Marianelli
Cast:
Jason Statham as Joey
Agata Buzek as Cristina
Vicky McClure as Dawn
Benedict Wong as Mr. Choy
Ger Ryan as Mother Superior
Youssef Kerkour as Bouzanis
Anthony Morris as Taxman
Victoria Bewick as Isabel
Christian Brassington as Max Forrester
Danny Webb as Damon
Trailers:
International Version

Details
Name:Redemption (2013) Eng 720p BluRay H264 AAC-RARBG
Description:
Redemption (2013) Eng 720p BluRay H264 AAC-RARBG

2d43f0921549c4e6d923adce026353be.jpg


Video
ID                                       : 1
Format                                   : AVC
Format/Info                              : Advanced Video Codec
Format profile                           : High@L4.1
Format settings                          : CABAC / 4 Ref Frames
Format settings, CABAC                   : Yes
Format settings, ReFrames                : 4 frames
Codec ID                                 : avc1
Codec ID/Info                            : Advanced Video Coding
Duration                                 : 1 h 40 min
Bit rate                                 : 1 500 kb/s
Width                                    : 1 280 pixels
Height                                   : 534 pixels
Display aspect ratio                     : 2.40:1
Original display aspect ratio            : 2.40:1
Frame rate mode                          : Constant
Frame rate                               : 23.976 (23976/1000) FPS
Color space                              : YUV
Chroma subsampling                       : 4:2:0
Bit depth                                : 8 bits
Scan type                                : Progressive
Bits/(Pixel*Frame)                       : 0.092
Stream size                              : 1.05 GiB (87%)
Writing library                          : x264 core 152 r2851M ba24899

Audio
ID                                       : 2
Format                                   : AAC
Format/Info                              : Advanced Audio Codec
Format profile                           : LC
Codec ID                                 : mp4a-40-2
Duration                                 : 1 h 40 min
Bit rate mode                            : Constant
Bit rate                                 : 224 kb/s
Channel(s)                               : 2 channels
Channel(s)_Original                      : 6 channels
Channel positions                        : Front: L C R, Side: L R, LFE
Sampling rate                            : 48.0 kHz
Frame rate                               : 46.875 FPS (1024 SPF)
Compression mode                         : Lossy
Stream size                              : 161 MiB (13%)
Language                                 : English
Default                                  : Yes
Alternate group                          : 1
Encoded date                             : UTC 2018-03-08 03:10:09
Tagged date                              : UTC 2018-03-08 03:10:09





Category:Movies > Hollywood Dub
Lang:English
Total Size:1.21 GB



|| Download This Movie Via Single Resumable Links Size: 1.21 GB ||

Direct-1 Google Drive | Direct-2 | Direct-3 |

Watch Online Click Here

No comments:

Post a Comment