Crazy World Only 4 You

Sorry For The Inconvenience. If You are facing link dead or no google drive file access then inform us via comment

Latest Updates

Thursday, 24 May 2018

Ride Along 2 (2016) BluRay 720p x264 [Dual Audio] [Hindi DD 5.1 - Eng 2.0] AAC Esub -=!Katyayan!=-


Poster


iMDB
Imdb Picture Title: Ride Along 2
Year: 2016
Runtime: 102 minutes
Votes: 42545
Rating: 5.9/10
Language: English
Country: USA
All Genres: Action, Comedy
Plot Outline: As his wedding day approaches, Ben heads to Miami with his soon-to-be brother-in-law James to bring down a drug dealer who's supplying the dealers of Atlanta with product.
Tagline: The brothers-in-law are back.
Director: Tim Story
Writing By: Phil Hay,Matt Manfredi,Greg Coolidge,
Produced By: Matt Alvarez,Chris Bender,Scott Bernstein,Larry Brezner,Ice Cube,Ronald G. Muhammad,William Packer,J.C. Spink,Nicolas Stern,
Music: Christopher Lennertz
Cast:
Ice Cube as James Payton
Kevin Hart as Ben Barber
Tika Sumpter as Angela Payton
Benjamin Bratt as Antonio Pope
Olivia Munn as Maya
Ken Jeong as AJ
Bruce McGill as Lt. Brooks
Michael Rose as The Hitter / Gates
Sherri Shepherd as Cori
Arturo del Puerto as Alonso
Trailers:
International Trailer #2
International Trailer
Trailer #1


Details
Name:Ride Along 2 (2016) BluRay 720p x264 [Dual Audio] [Hindi DD 5.1 - Eng 2.0] AAC Esub -=!Katyayan...
Description:
Ride Along 2 (2016) BluRay 720p x264 [Dual Audio] [Hindi DD 5.1 - Eng 2.0] AAC Esub -=!Katyayan!=-

 


Format                                   : Matroska
Format version                           : Version 4 / Version 2
File size                                : 841 MiB
Duration                                 : 1 h 41 min
Overall bit rate                         : 1 159 kb/s
Movie name                               : Ride Along 2 (2016) BluRay 720p x264 [Dual Audio] [Hindi DD 5.1 - Eng 2.0] AAC Esub -=!Katyayan!=

Video
ID                                       : 1
Format                                   : AVC
Format/Info                              : Advanced Video Codec
Format profile                           : High@L4.1
Format settings                          : CABAC / 4 Ref Frames
Format settings, CABAC                   : Yes
Format settings, RefFrames               : 4 frames
Codec ID                                 : V_MPEG4/ISO/AVC
Duration                                 : 1 h 41 min
Bit rate                                 : 900 kb/s
Width                                    : 1 280 pixels
Height                                   : 534 pixels
Display aspect ratio                     : 2.40:1
Original display aspect ratio            : 2.40:1
Frame rate mode                          : Constant
Frame rate                               : 23.976 (24000/1001) FPS
Color space                              : YUV
Chroma subsampling                       : 4:2:0
Bit depth                                : 8 bits
Scan type                                : Progressive
Bits/(Pixel*Frame)                       : 0.055
Stream size                              : 653 MiB (78%)
Title                                    : Ride Along 2 (2016) BluRay 720p x264 [Dual Audio] [Hindi DD 5.1 - Eng 2.0] AAC Esub -=!Katyayan!=
Writing library                          : x264 core 148
Default                                  : Yes
Forced                                   : No

Audio #1
ID                                       : 2
Format                                   : AAC
Format/Info                              : Advanced Audio Codec
Format profile                           : LC
Codec ID                                 : A_AAC-2
Duration                                 : 1 h 41 min
Bit rate                                 : 192 kb/s
Channel(s)                               : 6 channels
Channel positions                        : Front: L C R, Side: L R, LFE
Sampling rate                            : 48.0 kHz
Frame rate                               : 46.875 FPS (1024 SPF)
Compression mode                         : Lossy
Stream size                              : 140 MiB (17%)
Title                                    : -=!Katyayan!=
Language                                 : Hindi
Default                                  : Yes
Forced                                   : Yes

Audio #2
ID                                       : 3
Format                                   : AAC
Format/Info                              : Advanced Audio Codec
Format profile                           : HE-AAC / LC
Format settings                          : Explicit
Codec ID                                 : A_AAC-2
Duration                                 : 1 h 41 min
Bit rate                                 : 64.0 kb/s
Channel(s)                               : 2 channels
Channel positions                        : Front: L R
Sampling rate                            : 48.0 kHz / 24.0 kHz
Frame rate                               : 23.438 FPS (1024 SPF)
Compression mode                         : Lossy
Delay relative to video                  : 31 ms
Stream size                              : 46.4 MiB (6%)
Title                                    : -=!Katyayan!=
Language                                 : English
Default                                  : No
Forced                                   : No

Text
ID                                       : 4
Format                                   : UTF-8
Codec ID                                 : S_TEXT/UTF8
Codec ID/Info                            : UTF-8 Plain Text
Duration                                 : 1 h 37 min
Bit rate                                 : 106 b/s
Count of elements                        : 2312
Stream size                              : 75.9 KiB (0%)
Title                                    : -=!Katyayan!=
Language                                 : English
Default                                  : Yes
Forced                                   : Yes


 

Category:Movies > Hollywood Dub
Lang:Hindi
Total Size:841.80 MB



|| Download This Movie Via Single Resumable Links Size: 841 MB ||

Direct-1 Google Drive | Direct-2 | Direct-3 |

Watch Online Click Here

No comments:

Post a Comment